<?xml version="1.0" standalone="no"?>
<!DOCTYPE svg PUBLIC "-//W3C//DTD SVG 1.1//EN" "http://www.w3.org/Graphics/SVG/1.1/DTD/svg11.dtd" >
<svg xmlns="http://www.w3.org/2000/svg">
<metadata></metadata>
<defs>
<font id="SSSocialRegular" >
<font-face font-family="SS Social" units-per-em="864" ascent="918" descent="-270" />
<missing-glyph d="M0 864h864v-864h-864v864zM680 756h-496l248 -248zM108 680v-496l248 248zM184 108h496l-248 248zM756 184v496l-248 -248z" />
<glyph  horiz-adv-x="864" d="M0 864h864v-864h-864v864zM680 756h-496l248 -248zM108 680v-496l248 248zM184 108h496l-248 248zM756 184v496l-248 -248z" />
<glyph unicode="&#x2709;" horiz-adv-x="864" d="M864 702l-432 -324l-432 324q0 22 16 38t38 16h756q22 0 38 -16t16 -38zM0 605l432 -324l432 324v-443q0 -22 -16 -38t-38 -16h-756q-22 0 -38 16t-16 38v443z" />
<glyph unicode="&#xe310;" horiz-adv-x="864" d="M270 135q0 -56 -39.5 -95.5t-95.5 -39.5t-95.5 39.5t-39.5 95.5t39.5 95.5t95.5 39.5q55 0 95 -40t40 -95zM864 18q0 -8 -5 -13t-13 -5h-126q-8 0 -13 5t-5 13q0 139 -54 266t-145.5 218.5t-218.5 145.5t-266 54q-8 0 -13 5t-5 13v126q0 8 5 13t13 5q230 0 424.5 -113.5
t308 -308t113.5 -424.5zM594 18q0 -8 -5 -13t-13 -5h-126q-8 0 -13 5t-5 13q0 172 -121 293t-293 121q-8 0 -13 5t-5 13v126q0 8 5 13t13 5q117 0 223.5 -45.5t184 -123t123 -184t45.5 -223.5z" />
<glyph unicode="&#xf610;" horiz-adv-x="864" d="M324 0v396h-108v144h108v126q0 84 54.5 141t161.5 57q27 0 54 -2t40 -4l14 -2l-6 -136h-93q-38 0 -50.5 -18t-12.5 -54v-108h162l-11 -144h-151v-396h-162z" />
<glyph unicode="&#xf611;" horiz-adv-x="864" d="M864 709q-36 -54 -88 -92v-23q0 -71 -20.5 -142t-63 -136.5t-101.5 -115.5t-141.5 -80t-177.5 -30q-160 0 -272 72q21 -3 42 -3q115 0 220 84q-57 1 -102.5 35.5t-62.5 87.5q17 -3 33 -3q24 0 47 6q-61 12 -101.5 61t-40.5 113v2q38 -21 80 -22q-79 53 -79 147
q0 44 24 86q67 -81 161.5 -128.5t203.5 -53.5q-4 17 -4 41q0 73 51.5 125t125.5 52q76 0 130 -56q59 12 112 43q-20 -64 -78 -98q51 6 102 28z" />
<glyph unicode="&#xf612;" horiz-adv-x="864" d="M18 558h180v-558h-180v558zM486 0v324q0 52 28.5 80t71.5 28q44 0 71 -31t27 -95v-306h180v324q0 119 -59.5 185.5t-156.5 66.5q-99 0 -162 -95l-6 77h-177l3 -126v-432h180zM107 648h-1q-47 0 -76.5 28.5t-29.5 70.5q0 43 30 71t79 28q48 0 77 -28t30 -71
q0 -42 -30 -70.5t-79 -28.5z" />
<glyph unicode="&#xf613;" horiz-adv-x="864" d="M864 666v-36h-144v-144h-36v144h-144v36h144v144h36v-144h144zM375 372q44 -32 61.5 -65t17.5 -82q0 -66 -60 -114.5t-163 -48.5q-97 0 -164 36.5t-67 96.5q0 64 65 113.5t157 49.5h39q-30 30 -30 62q0 23 11 43q-7 -1 -21 -1q-76 0 -124 47t-48 117q0 66 60 116t137 50
h226l-51 -37h-72q35 -13 54 -49t19 -81q0 -69 -64 -118q-27 -21 -35 -34t-8 -31q0 -14 20 -35.5t40 -34.5zM254 485q43 -1 69 38.5t18 96.5q-7 58 -43.5 98t-80.5 42t-69 -37t-18 -96q7 -58 43.5 -99t80.5 -43zM231 98q164 0 164 118q0 7 -2 23q-2 8 -5.5 14.5t-9 13.5
t-10 12t-14.5 12t-15 11t-18 13t-19 13q-25 7 -56 9q-66 0 -115 -35t-49 -83q0 -50 42.5 -85.5t106.5 -35.5z" />
<glyph unicode="&#xf620;" horiz-adv-x="864" d="M702 47q-8 -5 -23.5 -13t-67 -21t-107.5 -13q-120 0 -177 53.5t-57 162.5v270h-126v126q90 30 137.5 84t60.5 168h126v-216h198v-162h-198v-216q0 -71 21.5 -98.5t86.5 -27.5q24 0 55.5 9t50.5 18l20 9v-133z" />
<glyph unicode="&#xf621;" horiz-adv-x="864" d="M432 864q179 0 305.5 -126.5t126.5 -305.5t-126.5 -305.5t-305.5 -126.5t-305.5 126.5t-126.5 305.5t126.5 305.5t305.5 126.5zM432 54q157 0 267.5 110.5t110.5 267.5t-110.5 267.5t-267.5 110.5t-267.5 -110.5t-110.5 -267.5t110.5 -267.5t267.5 -110.5zM135 562
q-27 -64 -27 -130q0 -94 49.5 -172.5t131.5 -118.5zM538 126l-102 278l-96 -283q47 -13 92 -13q56 0 106 18zM622 538q-31 52 -31 76q0 23 15.5 40.5t38.5 17.5h4q-92 84 -217 84q-83 0 -155 -39.5t-116 -106.5h20l86 4q8 0 12 -6t1 -13t-11 -8q-18 -2 -37 -3l118 -351
l71 213l-51 138l-34 3q-8 0 -11 7t1 13.5t12 6.5q54 -4 86 -4l86 4q14 1 14.5 -12.5t-12.5 -14.5q-17 -2 -37 -3l117 -348l32 108q25 80 25 105q0 45 -27 89zM756 432q0 84 -40 155q2 -10 2 -33q0 -55 -24 -116l-99 -286q73 43 117 117.5t44 162.5z" />
<glyph unicode="&#xf622;" horiz-adv-x="864" d="M810 540q22 0 38 -16t16 -38v-216q0 -112 -79 -191t-191 -79h-324q-112 0 -191 79t-79 191v324q0 112 79 191t191 79h162q112 0 191 -79t79 -191q0 -22 13 -38t32 -16h63zM270 648q-22 0 -38 -16t-16 -38t16 -38t38 -16h162q22 0 38 16t16 38t-16 38t-38 16h-162z
M594 216q22 0 38 16t16 38t-16 38t-38 16h-324q-22 0 -38 -16t-16 -38t16 -38t38 -16h324z" />
<glyph unicode="&#xf623;" horiz-adv-x="864" d="M468 864q121 0 195.5 -85t74.5 -221q0 -143 -76.5 -233.5t-203.5 -90.5q-116 0 -180 99h-8v-333h-108v702l-6 144h96l17 -100h7q31 52 80.5 85t111.5 33zM441 314q79 0 134 64t55 180q0 103 -55 164.5t-131 61.5q-65 0 -119.5 -53t-54.5 -137v-108q0 -77 52.5 -124.5
t118.5 -47.5z" />
<glyph unicode="&#xf630;" horiz-adv-x="864" d="M432 738q240 0 304 -11q80 -15 105 -64q22 -42 23 -173v-58q0 -157 -12 -202q-16 -60 -72 -81q-58 -22 -247 -23h-101q-240 0 -304 11q-80 15 -105 64q-22 42 -23 173v58q0 157 12 202q16 60 72 81q58 22 247 23h101zM324 270l270 162l-270 162v-324z" />
<glyph unicode="&#xf631;" horiz-adv-x="864" d="M504 612q13 51 41.5 91t62.5 62.5t67.5 33.5t62.5 11q55 0 90.5 -40.5t35.5 -105.5q0 -82 -55.5 -192.5t-130 -200.5t-152 -153.5t-120.5 -63.5q-35 0 -63 16.5t-46 46t-27 50t-18 49.5l-108 342q-11 35 -32 36.5t-76 -36.5l-36 44q7 8 18.5 22.5t45 50t65 63t71.5 50
t70 22.5q22 0 40 -8.5t30 -26.5t20.5 -35.5t14.5 -45.5t9 -46.5t6.5 -48t5.5 -41.5q36 -234 78 -234q18 0 51 43t60 100t27 91q0 44 -27 61t-81 -7z" />
<glyph unicode="&#xf640;" horiz-adv-x="864" d="M396 432q0 -82 -58 -140t-140 -58t-140 58t-58 140t58 140t140 58t140 -58t58 -140zM864 432q0 -82 -58 -140t-140 -58t-140 58t-58 140t58 140t140 58t140 -58t58 -140z" />
<glyph unicode="&#xf641;" horiz-adv-x="864" d="M648 522h216v-396q0 -52 -37 -89t-89 -37h-612q-52 0 -89 37t-37 89v396h216q-18 -42 -18 -90q0 -97 68.5 -165.5t165.5 -68.5t165.5 68.5t68.5 165.5q0 48 -18 90zM432 270q-68 0 -115 47t-47 115q0 67 47.5 114.5t114.5 47.5t114.5 -47.5t47.5 -114.5t-47.5 -114.5
t-114.5 -47.5zM864 738v-144h-263q-70 72 -169 72t-169 -72h-263v144q0 52 37 89t89 37h612q52 0 89 -37t37 -89z" />
<glyph unicode="&#xf650;" horiz-adv-x="864" d="M452 864q138 0 226 -84.5t88 -199.5q0 -148 -74.5 -244t-192.5 -96q-39 0 -73.5 18t-48.5 43q-28 -114 -35 -136q-9 -35 -32 -76t-35.5 -58.5t-21.5 -27.5q-3 -4 -7 -3t-5 5q-13 127 2 189l63 270q-15 32 -15 79q0 55 27.5 91.5t67.5 36.5q32 0 49.5 -21t17.5 -53
q0 -20 -7.5 -48.5t-19.5 -66.5t-17 -61q-9 -39 15 -67.5t64 -28.5q69 0 113 77t44 187q0 84 -54.5 137t-151.5 53q-110 0 -177.5 -69.5t-67.5 -167.5q0 -58 33 -98q11 -13 7 -27l-3 -12t-4 -17t-3 -11q-5 -20 -25 -13q-50 21 -75.5 72t-25.5 118q0 54 23 108t65 99.5
t111.5 74t154.5 28.5z" />
<glyph unicode="&#xf651;" horiz-adv-x="864" d="M972 702v-36h-36q-53 0 -89 -89q-159 -404 -163 -415h-36l-176 474q-7 18 -19 24t-39 6h-36v36h288v-36h-90l130 -358l113 286q13 32 6 52t-33 20h-36v36h216zM396 324q0 -72 -42.5 -122t-119.5 -50q-57 0 -102.5 25.5t-73.5 61.5l-22 -77h-36v216h36q37 -100 89.5 -145
t104.5 -45q49 0 80.5 26.5t31.5 60.5q0 35 -18 56t-68 36l-133 40q-128 41 -128 160q0 70 43.5 107.5t105.5 37.5q92 0 147 -68l15 58h36v-180h-36q-17 72 -62.5 115t-100.5 43q-49 0 -74 -27t-25 -59q0 -48 76 -72q82 -26 141 -43q135 -39 135 -155z" />
<glyph unicode="&#xf652;" horiz-adv-x="864" d="M162 594l198 -54v72l-198 54v-72zM162 468l198 -54v72l-198 54v-72zM162 342l198 -54v72l-198 54v-72zM702 594l-198 -54v72l198 54v-72zM702 468l-198 -54v72l198 54v-72zM702 342l-198 -54v72l198 54v-72zM796 802q14 -9 14 -28v-540q0 -28 -27 -35l-310 -83
q10 -47 59 -85q2 -1 2 -4q-2 -3 -4 -3l-46 -6l-4 -68q0 -2 -3 -4h-1q-2 0 -3 1q-64 63 -74 167l-318 85q-27 7 -27 35v540q0 19 14 28q15 11 31 7l270 -73q36 -9 63 -39q27 30 63 39l270 73q16 5 31 -7zM396 189v421q0 18 -13.5 35t-31.5 22l-225 60v-465zM738 262v465
l-225 -60q-18 -5 -31.5 -22t-13.5 -35v-421z" />
<glyph unicode="&#xf653;" horiz-adv-x="864" d="M864 386l-254 -165l-178 148l256 158zM0 386l254 -165l178 148l-256 158zM0 668l254 166l178 -149l-256 -158zM864 668l-254 166l-178 -149l256 -158zM432 30l255 153v52l-78 -50l-177 146l-176 -146l-78 50v-52z" />
<glyph unicode="&#xf660;" horiz-adv-x="864" d="M432 864q179 0 305.5 -126.5t126.5 -305.5t-126.5 -305.5t-305.5 -126.5t-305.5 126.5t-126.5 305.5t126.5 305.5t305.5 126.5zM714 656q-78 -89 -199 -138q27 -62 29 -67q117 18 248 -12q-3 121 -78 217zM432 792q-44 0 -83 -10q73 -90 136 -206q113 46 183 128
q-101 88 -236 88zM275 756q-74 -35 -125.5 -100.5t-69.5 -146.5q199 4 334 43q-59 107 -139 204zM72 432q0 -137 92 -240q115 175 286 235q7 3 21 7q-12 28 -26 58q-157 -46 -373 -49v-11zM432 72q72 0 135 26q-22 139 -71 274q-170 -48 -283 -226q97 -74 219 -74zM636 135
q60 42 99.5 103.5t51.5 134.5q-114 27 -218 15q41 -114 67 -253z" />
<glyph unicode="&#xf661;" horiz-adv-x="864" d="M360 452l9 -3t20 -11.5t25 -22.5t20 -37t9 -53q0 -70 -47 -116.5t-153 -46.5h-243v540h261q76 0 120.5 -36.5t44.5 -103.5q0 -12 -1.5 -22.5t-4 -19t-6.5 -16t-7.5 -13t-8.5 -11.5t-8.5 -9t-9 -7t-8 -5.5l-7.5 -4.5zM124 608v-119h115q79 0 79 61q0 34 -22 46t-71 12
h-101zM239 256q50 0 70 20t20 57q0 67 -88 67h-117v-144h115zM864 356v-24h-282q1 -45 28.5 -70.5t67.5 -25.5q26 0 45.5 11t25.5 22l6 11h104q-13 -56 -63.5 -91t-120.5 -35q-88 0 -141.5 53t-53.5 149q0 101 53 154.5t139 53.5q92 0 142 -55t50 -153zM584 399h175
q0 35 -24.5 58.5t-62.5 23.5q-39 0 -61.5 -23t-26.5 -59zM792 630v54h-234v-54h234z" />
<glyph unicode="&#xf670;" horiz-adv-x="864" d="M666 864v-126h-71q17 -39 17 -86q0 -87 -54.5 -143t-135.5 -59q-23 -37 -17.5 -61t39.5 -47q94 -4 158 -52.5t64 -118.5q0 -74 -68 -122.5t-166 -48.5t-166 49t-68 122q0 47 30 85.5t81 60.5q-30 29 -36.5 60.5t5 56t34.5 43.5q-45 25 -70.5 70.5t-25.5 104.5
q0 90 57 146.5t141 56.5q59 0 108 -30q48 3 84 13t48 18zM432 234q-48 0 -78 -18t-30 -45t30 -45t78 -18t78 18t30 45t-30 45t-78 18zM414 558q31 0 51.5 26.5t20.5 72.5t-20.5 72.5t-51.5 26.5t-51.5 -26.5t-20.5 -72.5t20.5 -72.5t51.5 -26.5z" />
<glyph unicode="&#xf671;" horiz-adv-x="864" d="M801 596q63 -79 63 -181q0 -183 -110 -263t-322 -80t-322 80t-110 262q0 104 63 181q-23 120 9 197q102 -8 188 -76q82 22 172 22q91 0 171 -22q89 68 189 76q32 -77 9 -196zM432 126q318 0 318 180q0 36 -11 64t-28 44.5t-39 27t-41 14t-37 3.5q-20 0 -60.5 -4.5
t-101.5 -4.5t-101.5 4.5t-60.5 4.5q-18 0 -37 -3.5t-41 -14t-39 -27t-28 -44.5t-11 -64q0 -180 318 -180zM612 297q0 81 -45 81t-45 -81t45 -81t45 81zM342 297q0 81 -45 81t-45 -81t45 -81t45 81z" />
<glyph unicode="&#xf672;" horiz-adv-x="864" d="M810 324h-108v-216h-540v216h-108v-324h756v324zM216 162v108h432v-108h-432zM224 364l18 107l426 -75l-19 -107zM283 598l45 98l392 -182l-46 -98zM426 836l77 77l305 -306l-76 -76z" />
<glyph unicode="&#xf680;" horiz-adv-x="864" d="M18 0l188 864h424q48 0 93.5 -19t82 -56.5t50.5 -94t0 -132.5q-28 -134 -124.5 -213t-230.5 -79h-174l-57 -270h-252zM622 560q13 49 -12.5 86.5t-71.5 37.5h-123l-55 -252h116q54 0 94 38t52 90z" />
<glyph unicode="&#xf681;" horiz-adv-x="864" d="M760 48q-43 -34 -97.5 -29.5t-90.5 45.5l-194 236v-165q0 -56 -39.5 -95.5t-95.5 -39.5t-95.5 39.5t-39.5 95.5v594q0 56 39.5 95.5t95.5 39.5q55 0 95 -40t40 -95v-145l164 218q33 44 88 52.5t100 -25.5q44 -33 52.5 -88t-25.5 -100l-163 -191l186 -211q35 -43 29 -99.5
t-49 -91.5z" />
<glyph unicode="&#xf690;" horiz-adv-x="864" d="M864 630v-252l-360 -288l-162 137q72 35 116 102l46 -77zM0 486q0 89 63.5 152.5t152.5 63.5t152.5 -63.5t63.5 -152.5t-63.5 -152.5t-152.5 -63.5t-152.5 63.5t-63.5 152.5z" />
<glyph unicode="&#xf6a0;" horiz-adv-x="864" d="M823 367q41 -60 41 -133q0 -97 -68.5 -165.5t-165.5 -68.5q-73 0 -133 41q-35 -5 -65 -5q-164 0 -280 116t-116 280q0 30 5 65q-41 60 -41 133q0 97 68.5 165.5t165.5 68.5q73 0 133 -41q35 5 65 5q164 0 280 -116t116 -280q0 -30 -5 -65zM440 162q91 0 156.5 46.5
t65.5 125.5q0 112 -180 153l-60 13q-28 6 -41 10.5t-24.5 14.5t-11.5 26q0 45 83 45q31 0 54 -10.5t34 -22.5t27 -22.5t34 -10.5q27 0 43.5 18.5t16.5 44.5q0 48 -67 78.5t-153 30.5q-54 0 -100.5 -15t-80.5 -52.5t-34 -92.5q0 -67 38.5 -100.5t109.5 -51.5l85 -20
q59 -15 71 -26t12 -30q0 -22 -23 -37t-61 -15q-36 0 -63 14t-40.5 30.5t-32 30.5t-38.5 14q-28 0 -43 -17.5t-15 -42.5q0 -53 70 -91t168 -38z" />
<glyph unicode="&#xf6b0;" horiz-adv-x="864" d="M864 602q-18 -88 -129 -129q3 -20 3 -41q0 -149 -108 -254.5t-261 -105.5t-261 105.5t-108 254.5t108 254.5t261 105.5q55 0 108 -15v-213q-36 21 -81 21q-87 0 -142.5 -59t-55.5 -121q0 -58 43 -92t101 -34q83 0 145 55t62 134v279q14 -7 74 -42q42 -26 67 -39
t66.5 -25.5t83.5 -12.5q10 0 18 -8q6 -8 6 -18z" />
<glyph unicode="&#xf6b1;" horiz-adv-x="864" d="M616 622q15 -10 6 -25q-9 -17 -25 -6q-104 62 -255 28q-7 -2 -13.5 2t-8.5 11q-4 18 14 22q167 38 282 -32zM627 668q-59 37 -140 46.5t-150 -12.5q-22 -5 -29 16q-5 21 16 28q79 24 169 13t157 -52q19 -10 8 -31q-12 -19 -31 -8zM432 576q115 0 188 -78t73 -210
q0 -131 -75 -209.5t-186 -78.5q-115 0 -188 78t-73 210q0 131 75 209.5t186 78.5zM432 114q55 0 89.5 47t34.5 127q0 85 -34 129.5t-90 44.5q-55 0 -89.5 -47t-34.5 -127q0 -85 34 -129.5t90 -44.5zM698 769q-14 -23 -37 -9q-67 39 -170.5 47.5t-167.5 -14.5q-11 -3 -21 2.5
t-13 16.5q-3 10 2 20t16 14q53 16 120 18.5t138.5 -12t123.5 -45.5q9 -6 12 -17t-3 -21z" />
<glyph unicode="&#xf6b2;" horiz-adv-x="864" d="M660 270q103 0 103 54q0 29 -25.5 44.5t-62.5 22.5t-73.5 17.5t-62 40.5t-25.5 81q0 72 48.5 107t127.5 35q158 0 170 -126l-99 -12q-7 60 -77 60q-34 0 -52.5 -14t-18.5 -39q0 -30 26 -45t62.5 -21.5t73.5 -17t63 -42t26 -86.5q0 -137 -216 -137q-47 0 -84.5 8.5
t-63.5 26t-44.5 34.5t-32 43t-20 41.5t-14.5 39.5l-3 9q-4 12 -12.5 39t-12.5 38.5t-12.5 32.5t-15 31t-18 24t-23.5 20t-29 10.5t-37 4.5q-56 0 -89 -44t-33 -118q0 -76 33 -119t79 -43q37 0 70.5 15t47.5 30l15 15l32 -86q-6 -6 -18.5 -14.5t-55.5 -23t-91 -14.5
q-43 0 -79.5 11t-68.5 36t-50 72t-18 112q0 128 62.5 188.5t160.5 60.5q62 0 104.5 -13.5t71 -46t45.5 -70.5t36 -101q13 -42 24.5 -68t31.5 -52.5t50.5 -38.5t73.5 -12z" />
<glyph unicode="&#x1f44d;" horiz-adv-x="864" d="M144 18v504q0 8 -5 13t-13 5h-108q-8 0 -13 -5t-5 -13v-504q0 -8 5 -13t13 -5h108q8 0 13 5t5 13zM820 387q44 -24 44 -72q0 -28 -18 -50.5t-45 -28.5q9 -18 9 -38q0 -30 -18 -54t-45 -32q9 -18 9 -40q0 -30 -21 -51t-51 -21h-180q-54 0 -103 22l-185 86v378
q154 103 203 170t49 154q0 22 16 38t38 16q32 0 59 -40q31 -43 31 -104q0 -30 -8.5 -69t-17 -62.5t-9.5 -23.5q-3 -9 2 -17t15 -8h189q34 0 57.5 -23.5t23.5 -57.5q0 -50 -44 -72z" />
<glyph   />
<glyph  horiz-adv-x="288"  />
<glyph   />
<glyph unicode="&#xd;"  />
<glyph unicode=" " horiz-adv-x="216"  />
<glyph unicode="+" horiz-adv-x="584" d="M545 215h-217v-215h-72v215h-217v74h217v215h72v-215h217v-74z" />
<glyph unicode="-" horiz-adv-x="833"  />
<glyph unicode="A" horiz-adv-x="580" d="M567 0h-92l-61 181h-251l-65 -181h-86l234 624h97zM382 256l-92 276l-100 -276h192z" />
<glyph unicode="B" horiz-adv-x="580" d="M543 187q0 -84 -57 -135.5t-137 -51.5h-287v624h282q69 0 118 -42t50 -116q0 -42 -21 -79t-60 -51q50 -17 81 -56.5t31 -92.5zM429 448q0 51 -26.5 76.5t-92.5 26.5h-162v-192h164q59 0 87 25.5t30 63.5zM459 176q0 57 -30 85t-114 29h-167v-219h195q56 0 85 32t31 73z
" />
<glyph unicode="C" horiz-adv-x="628" d="M592 229q-13 -105 -84 -175.5t-182 -70.5q-63 0 -114 20.5t-83 54t-53.5 78t-30.5 89.5t-9 92q0 83 31 154t97.5 119t157.5 51q29 0 59 -5t64.5 -19.5t62 -36t49 -59t28.5 -85.5h-82q-12 62 -58 95t-111 33q-107 0 -157.5 -68.5t-52.5 -178.5q2 -66 21 -122.5t63.5 -96.5
t108.5 -40q81 0 130.5 45t61.5 126h83z" />
<glyph unicode="D" horiz-adv-x="628" d="M584 334q0 -138 -67 -235t-183 -99h-265v624h262q42 0 83 -16t79.5 -48t63.5 -91t27 -135zM497 327q0 96 -43 160t-135 64h-164v-480h174q76 0 122 73t46 183z" />
<glyph unicode="E" horiz-adv-x="580" d="M534 0h-461v624h456v-76h-371v-190h342v-75h-342v-208h376v-75z" />
<glyph unicode="F" horiz-adv-x="530" d="M505 548h-347v-190h306v-75h-306v-283h-85v624h432v-76z" />
<glyph unicode="G" horiz-adv-x="674" d="M610 0h-54l-20 83q-29 -41 -84 -68t-121 -29q-149 0 -219.5 90t-70.5 241q0 60 18.5 115.5t53.5 101.5t93 74t130 29q100 0 175.5 -53.5t88.5 -149.5h-81q-33 130 -187 130q-89 0 -147 -68t-58 -184q0 -124 56.5 -191.5t148.5 -67.5q72 0 131 45q38 31 52.5 67t16.5 95
h-194v72h272v-332z" />
<glyph unicode="H" horiz-adv-x="628" d="M562 0h-85v290h-326v-290h-85v624h85v-259h326v259h85v-624z" />
<glyph unicode="I" horiz-adv-x="240" d="M163 0h-85v624h85v-624z" />
<glyph unicode="J" horiz-adv-x="434" d="M372 168q0 -96 -49.5 -139.5t-130.5 -45.5q-93 0 -135.5 47.5t-42.5 108.5v61h79v-44q0 -101 94 -101q51 0 74.5 26t24.5 82v461h86v-456z" />
<glyph unicode="K" horiz-adv-x="580" d="M575 0h-109l-219 312l-98 -93v-219h-85v624h85v-304l303 304h116l-260 -252z" />
<glyph unicode="L" horiz-adv-x="484" d="M466 0h-402v624h85v-549h317v-75z" />
<glyph unicode="M" horiz-adv-x="722" d="M661 0h-83v524l-174 -524h-84l-178 523v-523h-80v624h121l180 -529l178 529h120v-624z" />
<glyph unicode="N" horiz-adv-x="628" d="M562 0h-96l-318 503v-503h-82v624h100l314 -505v505h82v-624z" />
<glyph unicode="O" horiz-adv-x="674" d="M641 312q0 -35 -5 -69.5t-23.5 -82.5t-49 -84t-88.5 -62t-136 -27q-76 0 -135.5 27.5t-95 74t-54 103.5t-18.5 120q0 89 31.5 160t101.5 117.5t170 47.5q66 0 119.5 -20.5t86.5 -53.5t55.5 -77t31.5 -87t9 -87zM556 312q0 112 -57.5 180.5t-159.5 69.5q-97 0 -157 -68
t-60 -182q0 -113 58 -181t159 -69q102 0 159.5 68.5t57.5 181.5z" />
<glyph unicode="P" horiz-adv-x="580" d="M539 448q0 -76 -45 -129.5t-140 -55.5h-196v-263h-85v624h281q79 0 131 -46t54 -130zM452 448q0 103 -123 103h-171v-217h168q124 0 126 114z" />
<glyph unicode="Q" horiz-adv-x="674" d="M641 312q0 -150 -91 -240l85 -66l-41 -51l-96 75q-65 -43 -160 -43q-76 0 -135.5 27.5t-95.5 74t-54.5 103.5t-18.5 120q0 138 78 230.5t226 94.5q66 0 119 -20.5t86.5 -53.5t56.5 -77t32 -87t9 -87zM554 312q0 112 -57 180.5t-159 69.5q-98 0 -157.5 -67.5t-59.5 -182.5
q0 -113 58 -181t159 -69q51 0 91 20l-65 49l43 53l80 -61q67 70 67 189z" />
<glyph unicode="R" horiz-adv-x="628" d="M584 0h-95q-11 24 -16 63.5t-6.5 79t-2.5 47.5q-10 75 -102 76h-212v-266h-85v624h299q80 0 137 -43.5t59 -128.5q0 -97 -91 -145q69 -22 77 -101q3 -24 5.5 -66.5t6 -69.5t10.5 -45q7 -17 16 -25zM474 444q0 104 -103 107h-221v-212h214q47 0 78.5 29t31.5 76z" />
<glyph unicode="S" horiz-adv-x="580" d="M537 175q0 -91 -67.5 -139.5t-176.5 -48.5q-249 0 -250 219h78q0 -141 172 -147q69 0 116 24.5t47 80.5q0 54 -38.5 74t-164.5 48q-15 3 -22 5q-76 17 -121.5 51.5t-47.5 103.5q0 82 54.5 136.5t161.5 54.5q65 0 112.5 -16.5t71 -38.5t37.5 -52t17.5 -49t4.5 -37v-5h-78
q0 63 -45.5 93.5t-111.5 33.5q-27 0 -50.5 -5t-45 -16.5t-34 -34t-12.5 -54.5q0 -60 75 -76l178 -41q140 -31 140 -164z" />
<glyph unicode="T" horiz-adv-x="530" d="M519 548h-212v-548h-85v548h-210v76h507v-76z" />
<glyph unicode="U" horiz-adv-x="628" d="M560 205q0 -93 -63.5 -154.5t-188.5 -62.5q-119 0 -178.5 55t-61.5 158v423h85v-407q0 -72 40 -113.5t115 -41.5q76 0 120.5 40t46.5 113v409h85v-419z" />
<glyph unicode="V" horiz-adv-x="580" d="M561 624l-227 -624h-90l-227 624h98l177 -533l184 533h85z" />
<glyph unicode="W" horiz-adv-x="819" d="M806 624l-165 -624h-88l-142 517l-146 -517h-89l-162 624h91l115 -509l143 509h91l143 -509l115 509h94z" />
<glyph unicode="X" horiz-adv-x="580" d="M562 0h-105l-167 256l-173 -256h-101l223 320l-210 304h106l158 -239l159 239h101l-209 -305z" />
<glyph unicode="Y" horiz-adv-x="580" d="M566 624l-235 -375v-249h-84v249l-234 375h102l178 -300l179 300h94z" />
<glyph unicode="Z" horiz-adv-x="530" d="M510 0h-490v69l382 480h-354v75h462v-73l-384 -475h384v-76z" />
<glyph unicode="a" horiz-adv-x="484" d="M461 1v-1q-24 -9 -50 -9q-71 0 -73 68q-65 -70 -164 -73q-64 0 -104 37.5t-40 90.5q0 33 12 58.5t27 40t45 26t48.5 15.5t56.5 10t51 9q64 12 64 55q0 35 -26.5 56t-78.5 21q-47 0 -75 -22.5t-29 -67.5h-71q0 62 47 106t138 45q70 0 121 -34.5t51 -99.5v-243
q0 -17 2.5 -25t14 -13t33.5 5v-55zM332 151v82q-17 -11 -57.5 -19.5t-75 -15t-62.5 -28t-28 -55.5q0 -33 22 -50t59 -17q48 0 95 29t47 74z" />
<glyph unicode="b" horiz-adv-x="484" d="M459 240q2 -45 -8 -88t-32.5 -81.5t-64 -61.5t-96.5 -23q-93 0 -134 70l-6 -56h-69v624h78v-227q50 66 139 69q83 0 136.5 -63t56.5 -163zM379 227q0 84 -33.5 127.5t-93.5 43.5q-35 0 -61 -16t-40 -42.5t-20.5 -54.5t-6.5 -57q0 -171 132 -175q59 0 91 47.5t32 126.5z
" />
<glyph unicode="c" horiz-adv-x="434" d="M418 160q-10 -90 -65.5 -132t-126.5 -42q-86 0 -143.5 67t-57.5 174q0 116 58.5 178t145.5 62q73 0 127 -39t62 -126h-73q-4 45 -35 70.5t-78 25.5q-56 0 -91 -40.5t-35 -130.5q0 -72 35.5 -121.5t90.5 -49.5q94 0 112 104h74z" />
<glyph unicode="d" horiz-adv-x="484" d="M27 240q3 100 56.5 163t136.5 63q88 -3 139 -69v227h78v-624h-69v64q-20 -35 -59 -56.5t-81 -21.5q-55 0 -96.5 23t-64 61.5t-32.5 81.5t-8 88zM107 227q0 -79 32 -126.5t91 -47.5q132 4 132 175q0 65 -31 117.5t-97 52.5q-60 0 -93.5 -43.5t-33.5 -127.5z" />
<glyph unicode="e" horiz-adv-x="484" d="M421 201h-339q0 -64 38.5 -104.5t95.5 -40.5q55 0 88 29.5t33 56.5h78q-13 -73 -68 -114t-135 -41q-96 0 -152.5 65t-58.5 162q0 114 59 184t154 70q101 0 155.5 -73.5t51.5 -193.5zM341 263q0 61 -37 99t-89 38q-54 0 -92.5 -40.5t-40.5 -96.5h259z" />
<glyph unicode="f" horiz-adv-x="240" d="M227 630v-63q-13 2 -32 2q-23 0 -32.5 -10.5t-9.5 -35.5v-69h74v-69h-74v-385h-78v385h-63v69h63v84q0 41 31 69t81 28q23 0 40 -5z" />
<glyph unicode="g" horiz-adv-x="518" d="M458 20q0 -111 -54 -165t-151 -54q-26 0 -52 5.5t-56 19t-49 44t-20 74.5h76q0 -34 29 -53t67 -19q63 0 98.5 35t35.5 107v27q-50 -54 -139 -54q-76 0 -137.5 62.5t-63.5 165.5q0 117 59 184t153 67q41 0 75.5 -18t52.5 -46v55h76v-437zM382 226q0 76 -35 119.5t-96 43.5
q-51 0 -89.5 -41t-38.5 -115q0 -87 39 -132.5t92 -45.5q56 0 91.5 45.5t36.5 125.5z" />
<glyph unicode="h" horiz-adv-x="484" d="M427 0h-78v297q0 101 -89 101q-54 0 -91 -38t-37 -113v-247h-78v624h78v-231q46 70 141 74q64 0 109 -38t45 -127v-302z" />
<glyph unicode="i" horiz-adv-x="194" d="M134 536h-78v86h78v-86zM134 0h-78v454h78v-454z" />
<glyph unicode="j" horiz-adv-x="269" d="M211 -78q0 -45 -29.5 -74t-84.5 -29q-25 0 -39 3v66q19 -4 35 -4q22 0 31 12t9 43v515h78v-532zM211 536h-78v88h78v-88z" />
<glyph unicode="k" horiz-adv-x="434" d="M434 0h-97l-150 222l-55 -54v-168h-78v624h78v-363l194 193h98l-181 -174z" />
<glyph unicode="l" horiz-adv-x="194" d="M135 0h-79v624h79v-624z" />
<glyph unicode="m" horiz-adv-x="722" d="M669 0h-78v293q0 105 -84 105q-46 0 -75 -33t-31 -89v-276h-78v313q0 36 -17.5 60.5t-55.5 24.5q-48 0 -82 -36t-35 -115v-247h-78v454h72v-64q49 76 139 76q84 0 122 -73q47 73 139 73q18 0 35.5 -3.5t37.5 -14t34.5 -27t24.5 -44.5t10 -64v-313z" />
<glyph unicode="n" horiz-adv-x="484" d="M427 0h-78v284q0 114 -89 114q-55 0 -91.5 -37.5t-36.5 -101.5v-259h-78v454h74v-66q15 25 54.5 51.5t90.5 26.5q70 0 112 -40.5t42 -123.5v-302z" />
<glyph unicode="o" horiz-adv-x="484" d="M456 227q0 -98 -57.5 -168t-155.5 -72q-97 0 -154.5 70.5t-57.5 169.5q0 101 57 170.5t155 69.5t155.5 -69.5t57.5 -170.5zM376 227q1 39 -12 76.5t-44.5 66t-76.5 29.5q-65 0 -98.5 -54t-33.5 -118q0 -73 32.5 -123t99.5 -50t98.5 49t34.5 124z" />
<glyph unicode="p" horiz-adv-x="484" d="M460 214q-3 -100 -56.5 -163t-137.5 -63q-87 3 -138 69v-237h-79v634h70v-64q20 35 59 56.5t81 21.5q55 0 96.5 -23t64 -61.5t32.5 -81.5t8 -88zM380 227q0 79 -32 126.5t-91 47.5q-132 -4 -132 -175q0 -65 31 -117.5t97 -52.5q60 0 93.5 43.5t33.5 127.5z" />
<glyph unicode="q" horiz-adv-x="484" d="M19 214q0 46 10 88t32 81t63 62t96 23q92 0 133 -70l7 56h70v-634h-78v237q-52 -66 -139 -69q-85 0 -138.5 60.5t-55.5 165.5zM99 227q0 -83 34 -127t94 -44q45 0 75.5 29t41 65t10.5 76q0 171 -132 175q-59 0 -91 -47.5t-32 -126.5z" />
<glyph unicode="r" horiz-adv-x="288" d="M257 385q-65 0 -105.5 -30t-40.5 -83v-272h-78v454h75v-77q40 87 149 87v-79z" />
<glyph unicode="s" horiz-adv-x="434" d="M405 137q0 -65 -48 -108t-131 -43q-85 0 -137.5 38.5t-58.5 121.5h75q0 -93 121 -93q43 0 73 18t30 53q0 27 -27.5 42.5t-129.5 39.5q-26 6 -43.5 12.5t-39 19.5t-32.5 34t-11 50q0 69 48 107t124 38q52 0 88.5 -15.5t53 -40.5t23.5 -45.5t8 -41.5h-74q0 76 -107 76
q-11 0 -22 -1.5t-28 -7t-28.5 -19.5t-12.5 -36q0 -29 27.5 -41t126.5 -36q62 -17 96.5 -43.5t35.5 -78.5z" />
<glyph unicode="t" horiz-adv-x="240" d="M227 54v-64q-23 -5 -40 -5q-50 0 -81 28t-31 69v303h-59v69h59v128h78v-128h74v-69h-74v-287q0 -25 9.5 -36t32.5 -11q12 0 32 3z" />
<glyph unicode="u" horiz-adv-x="484" d="M49 454h79v-284q0 -114 89 -114q55 0 91.5 37.5t36.5 101.5v259h78v-454h-75v66q-15 -25 -54.5 -51.5t-90.5 -26.5q-70 0 -112 40.5t-42 123.5v302z" />
<glyph unicode="v" horiz-adv-x="434" d="M417 454l-173 -454h-82l-165 454h87l124 -372l127 372h82z" />
<glyph unicode="w" horiz-adv-x="628" d="M615 454l-131 -454h-80l-91 351l-91 -351h-80l-130 454h83l86 -358l93 358h85l89 -358l91 358h76z" />
<glyph unicode="x" horiz-adv-x="434" d="M425 0h-98l-112 171l-110 -171h-96l160 234l-152 220h98l105 -161l106 161h92l-153 -221z" />
<glyph unicode="y" horiz-adv-x="434" d="M425 454q-70 -199 -133 -365t-77 -195q-28 -56 -63 -72t-99 -2v70q69 -26 96 24l31 72l-170 468h86l124 -371l123 371h82z" />
<glyph unicode="z" horiz-adv-x="434" d="M407 0h-380v59l273 331h-252v64h350v-63l-271 -329h280v-62z" />
</font>
</defs>
</svg>
