<?xml version="1.0" standalone="no"?>
<!DOCTYPE svg PUBLIC "-//W3C//DTD SVG 1.1//EN" "http://www.w3.org/Graphics/SVG/1.1/DTD/svg11.dtd" >
<svg xmlns="http://www.w3.org/2000/svg">
<metadata>Generated by IcoMoon</metadata>
<defs>
<font id="icomoon" horiz-adv-x="1024">
<font-face units-per-em="1024" ascent="960" descent="-64" />
<missing-glyph horiz-adv-x="1024" />
<glyph unicode="&#x20;" horiz-adv-x="512" d="" />
<glyph unicode="&#xe900;" glyph-name="power-a" d="M645.669 867.803c-9.728 2.834-19.84-2.743-22.674-12.434s2.725-19.84 12.434-22.674c185.71-54.309 315.429-227.529 315.429-421.266 0-241.975-196.882-438.857-438.857-438.857s-438.857 196.882-438.857 438.857c0 193.975 129.92 367.269 315.959 421.431 9.691 2.816 15.269 12.965 12.453 22.656-2.798 9.691-12.946 15.342-22.656 12.453-201.563-58.661-342.327-246.4-342.327-456.539 0-262.162 213.266-475.429 475.429-475.429s475.429 213.266 475.429 475.429c0 209.883-140.544 397.531-341.76 456.375zM512 466.286c10.112 0 18.286 8.174 18.286 18.286v457.143c0 10.112-8.174 18.286-18.286 18.286s-18.286-8.174-18.286-18.286v-457.143c0-10.112 8.174-18.286 18.286-18.286z" />
<glyph unicode="&#xe901;" glyph-name="shop-a" d="M909.188 469.194c-42.325 0-79.376 23.024-99.297 57.189-19.921-34.195-56.972-57.189-99.297-57.189s-79.407 23.024-99.297 57.189c-19.89-34.195-56.941-57.189-99.266-57.189s-79.407 23.024-99.297 57.189c-19.921-34.195-56.972-57.189-99.359-57.189-42.325 0-79.376 23.024-99.297 57.189-19.921-34.195-56.972-57.189-99.297-57.189-63.271 0-114.781 51.479-114.781 114.75v152.793c0 1.924 0.372 3.848 1.055 5.648l73.325 187.888c2.327 5.958 8.068 9.868 14.46 9.868h846.289c6.392 0 12.133-3.91 14.46-9.868l73.325-187.888c0.714-1.8 1.086-3.724 1.086-5.648v-152.793c0-63.271-51.51-114.75-114.812-114.75zM809.922 599.459c8.564 0 15.515-6.951 15.515-15.515 0-46.173 37.578-83.72 83.782-83.72s83.782 37.547 83.782 83.72v149.876l-68.422 175.29h-825.127l-68.422-175.29v-149.876c0-46.173 37.578-83.72 83.751-83.72 46.204 0 83.782 37.547 83.782 83.72 0 8.564 6.951 15.515 15.515 15.515s15.515-6.951 15.515-15.515c0-46.173 37.578-83.72 83.782-83.72 46.235 0 83.844 37.547 83.844 83.72 0 8.564 6.951 15.515 15.515 15.515s15.515-6.951 15.515-15.515c0-46.173 37.578-83.72 83.782-83.72 46.173 0 83.751 37.547 83.751 83.72 0 8.564 6.951 15.515 15.515 15.515s15.515-6.951 15.515-15.515c0-46.173 37.578-83.72 83.782-83.72s83.782 37.547 83.782 83.72c0.031 8.564 6.951 15.515 15.546 15.515zM880.95-44.172h-737.87c-37.205 0-67.46 30.255-67.46 67.46v326.935c0 8.564 6.951 15.515 15.515 15.515s15.515-6.951 15.515-15.515v-326.935c0-20.077 16.322-36.43 36.43-36.43h737.87c20.108 0 36.461 16.322 36.461 36.43v326.935c0 8.564 6.951 15.515 15.515 15.515s15.515-6.951 15.515-15.515v-326.935c-0.031-37.174-30.286-67.46-67.491-67.46zM447.86-37.935h-224.628c-8.564 0-15.515 6.951-15.515 15.515v383.348c0 8.564 6.951 15.515 15.515 15.515h224.597c8.564 0 15.515-6.951 15.515-15.515v-383.348c0.031-8.564-6.92-15.515-15.484-15.515zM238.747-6.904h193.567v352.318h-193.567v-352.318zM800.737 141.421h-265.806c-8.564 0-15.515 6.951-15.515 15.515v203.962c0 8.564 6.951 15.515 15.515 15.515h265.806c8.564 0 15.515-6.951 15.515-15.515v-203.962c0-8.564-6.951-15.515-15.515-15.515zM550.416 172.451h234.775v172.932h-234.775v-172.932z" />
<glyph unicode="&#xe902;" glyph-name="lan-af" d="M1009.114 682.233l-262.887 262.887c-19.848 19.832-52.157 19.848-71.989 0l-203.016-203.032-11.844 11.844c-6.656 6.674-17.476 6.674-24.132 0l-191.102-191.102 275.005-275.005c6.674-6.674 6.674-17.46 0-24.132-3.328-3.328-7.698-5-12.066-5s-8.738 1.672-12.066 5l-270.399 270.395-80.32-240.973c-2.048-6.128-0.444-12.902 4.13-17.46l35.739-35.739-41.593-41.593c-8.038-8.038-12.476-18.74-12.476-30.125 0-8.38 2.44-16.384 6.93-23.246l-132.015-132.015c-3.208-3.208-5-7.544-5-12.066s1.792-8.874 5-12.066l47.805-47.805c3.328-3.328 7.698-5 12.066-5s8.738 1.672 12.066 5l131.999 131.999c7.048-4.59 15.138-6.896 23.246-6.896 10.906 0 21.812 4.164 30.125 12.458l41.593 41.593 35.739-35.739c3.242-3.26 7.612-5 12.066-5 1.81 0 3.618 0.29 5.394 0.87l240.973 80.32-55.263 55.263c-6.674 6.674-6.674 17.46 0 24.132s17.46 6.674 24.132 0l59.871-59.871 191.102 191.102c6.674 6.674 6.674 17.46 0 24.132l-11.828 11.844 203.032 203.032c19.816 19.834 19.816 52.143-0.016 71.993zM238.151 102.679c-3.294-3.294-8.652-3.294-11.964 0l-59.513 59.513c-2.15 2.15-2.492 4.676-2.492 5.99s0.324 3.822 2.474 5.99l41.593 41.593 71.477-71.477-41.575-41.609zM375.695 191.957c-3.328-3.328-7.698-5-12.066-5s-8.738 1.672-12.066 5l-95.61 95.612c-6.674 6.674-6.674 17.46 0 24.132 6.656 6.674 17.476 6.674 24.132 0l95.612-95.612c6.672-6.672 6.672-17.458-0.002-24.132zM471.307 191.957c-3.328-3.328-7.698-5-12.066-5s-8.738 1.672-12.066 5l-191.222 191.222c-6.674 6.674-6.674 17.46 0 24.132 6.656 6.674 17.476 6.674 24.132 0l191.222-191.222c6.672-6.672 6.672-17.458 0-24.132zM913.4 729.662l23.672-23.672-71.477-71.477-23.672 23.672 71.477 71.477zM817.79 825.273l23.672-23.672-71.477-71.477-23.672 23.672 71.477 71.477zM566.679 455.118c-12.698-12.698-34.851-12.698-47.567 0-6.348 6.366-9.848 14.796-9.848 23.792 0 8.994 3.498 17.426 9.848 23.792l143.297 143.313 47.583-47.583-143.313-143.315zM984.963 634.376l-203.032-203.032-95.39 95.39 59.651 59.633c3.208 3.208 5 7.544 5 12.066s-1.792 8.874-5 12.066l-71.717 71.717c-6.4 6.4-17.732 6.4-24.132 0l-59.633-59.651-95.372 95.372 203.032 203.032c6.536 6.52 17.186 6.52 23.724 0l23.774-23.758-83.562-83.544c-3.208-3.208-5-7.544-5-12.066s1.792-8.874 5-12.066l191.22-191.22c3.208-3.208 7.544-5 12.066-5s8.874 1.792 12.066 5l83.544 83.544 23.758-23.758c6.54-6.554 6.54-17.188 0.002-23.724z" />
<glyph unicode="&#xe903;" glyph-name="lan-a" d="M829.867 861.468l-47.804 47.804c-6.674 6.674-17.46 6.674-24.132 0l-95.61-95.61c-3.208-3.192-5-7.544-5-12.066s1.792-8.858 5-12.066l47.804-47.804c3.328-3.328 7.698-5 12.066-5s8.738 1.672 12.066 5l95.61 95.61c3.208 3.192 5 7.544 5 12.066s-1.792 8.858-5 12.066zM722.191 777.927l-23.672 23.672 71.478 71.476 23.672-23.672-71.478-71.476zM877.671 813.665l-47.804 47.804c-3.192 3.208-7.544 5-12.066 5s-8.858-1.792-12.066-5l-95.61-95.608c-6.674-6.674-6.674-17.46 0-24.132l47.804-47.804c3.192-3.208 7.544-5 12.066-5s8.858 1.81 12.066 5l95.61 95.61c6.674 6.67 6.674 17.456 0 24.13zM769.997 730.121l-23.672 23.672 71.476 71.476 23.672-23.672-71.476-71.476zM925.476 765.861l-47.804 47.804c-6.674 6.674-17.46 6.674-24.132 0l-95.61-95.61c-3.208-3.192-5-7.544-5-12.066s1.792-8.858 5-12.066l47.804-47.804c3.328-3.328 7.698-5 12.066-5s8.738 1.672 12.066 5l95.61 95.61c3.208 3.192 5 7.544 5 12.066s-1.792 8.856-5 12.066zM817.801 682.317l-23.672 23.672 71.476 71.476 23.672-23.672-71.476-71.476zM973.28 718.055l-47.804 47.806c-3.192 3.208-7.544 5-12.066 5s-8.858-1.792-12.066-5l-95.61-95.61c-6.674-6.674-6.674-17.46 0-24.132l47.804-47.804c3.192-3.208 7.544-5 12.066-5s8.858 1.792 12.066 5l95.61 95.61c6.672 6.672 6.672 17.458 0 24.13zM865.605 634.513l-23.672 23.672 71.476 71.476 23.672-23.672-71.476-71.476zM746.205 610.517l-71.716 71.716c-6.4 6.4-17.732 6.4-24.132 0l-155.359-155.377c-12.8-12.8-19.848-29.816-19.848-47.924s7.048-35.124 19.848-47.924c13.226-13.21 30.566-19.814 47.924-19.814s34.714 6.604 47.906 19.832l155.377 155.359c3.208 3.192 5 7.544 5 12.066s-1.792 8.858-5 12.066zM566.696 455.124c-13.108-13.124-34.442-13.124-47.566 0-6.348 6.366-9.848 14.798-9.848 23.792s3.498 17.426 9.848 23.792l143.293 143.293 47.566-47.582-143.293-143.295zM519.146 287.817l-262.931 262.933c-6.656 6.674-17.476 6.674-24.132 0-6.674-6.674-6.674-17.46 0-24.132l262.915-262.933c3.328-3.328 7.698-5 12.066-5s8.738 1.672 12.084 5c6.672 6.672 6.672 17.458-0.002 24.132zM614.738 192.207l-47.804 47.804c-6.674 6.674-17.46 6.674-24.132 0-6.674-6.674-6.674-17.46 0-24.132l47.804-47.804c3.328-3.328 7.698-5 12.066-5s8.738 1.672 12.066 5c6.674 6.674 6.674 17.46 0 24.132zM315.965 156.367l-95.61 95.61c-6.656 6.674-17.476 6.674-24.132 0l-53.658-53.658c-8.038-8.056-12.476-18.74-12.476-30.124s4.42-22.068 12.476-30.124l59.512-59.512c8.294-8.312 19.2-12.458 30.106-12.458 10.906 0.018 21.828 4.164 30.124 12.476l53.658 53.658c3.208 3.192 5 7.544 5 12.066 0.002 4.522-1.79 8.858-5 12.066zM238.191 102.675c-3.31-3.294-8.67-3.294-11.964 0l-59.512 59.512c-2.168 2.168-2.492 4.676-2.492 5.99s0.324 3.84 2.474 5.99l41.592 41.592 71.494-71.494-41.592-41.59zM220.357 108.545l-47.804 47.804c-6.4 6.4-17.732 6.4-24.132 0l-143.413-143.411c-3.208-3.192-5-7.544-5-12.066s1.792-8.858 5-12.066l47.804-47.804c3.328-3.328 7.698-5 12.066-5s8.738 1.672 12.066 5l143.413 143.413c6.672 6.672 6.672 17.458 0 24.13zM64.878-22.8l-23.672 23.672 119.28 119.28 23.672-23.672-119.28-119.28zM1009.12 682.233l-262.881 262.881c-19.848 19.848-52.156 19.848-71.988 0l-215.095-215.111c-3.208-3.192-5-7.544-5-12.066s1.792-8.858 5-12.066l119.52-119.502c6.4-6.4 17.732-6.4 24.132 0l59.632 59.648 47.582-47.582-59.648-59.634c-3.208-3.192-5-7.544-5-12.066s1.792-8.858 5-12.066l119.502-119.52c3.192-3.208 7.544-5 12.066-5s8.858 1.792 12.066 5l215.111 215.093c19.834 19.85 19.834 52.14 0.002 71.99zM984.97 634.377l-203.027-203.029-95.37 95.388 59.632 59.632c3.208 3.192 5 7.544 5 12.066s-1.792 8.858-5 12.066l-71.716 71.716c-6.4 6.4-17.732 6.4-24.132 0l-59.632-59.648-95.37 95.37 203.027 203.043c6.536 6.52 17.186 6.52 23.724 0l262.865-262.881c6.534-6.554 6.534-17.186-0.002-23.722zM817.903 395.372l-143.413 143.413c-6.674 6.674-17.46 6.674-24.132 0l-83.662-83.662c-12.698-12.698-34.85-12.698-47.566 0-6.348 6.366-9.848 14.798-9.848 23.792s3.498 17.426 9.848 23.792l83.662 83.662c6.674 6.674 6.674 17.46 0 24.132l-143.413 143.413c-6.656 6.674-17.476 6.674-24.132 0l-203.165-203.165c-1.878-1.878-3.294-4.164-4.13-6.674l-83.662-250.985c-2.030-6.126-0.444-12.886 4.13-17.46l191.217-191.217c3.242-3.26 7.612-5 12.066-5 1.81 0 3.636 0.29 5.394 0.87l250.985 83.662c2.508 0.854 4.796 2.252 6.674 4.13l203.147 203.165c6.674 6.672 6.674 17.458 0 24.132zM593.456 195.057l-237.143-79.054-176.301 176.301 79.054 237.179 188.247 188.247 119.28-119.28-71.594-71.596c-12.8-12.8-19.848-29.816-19.848-47.924s7.048-35.124 19.848-47.924c25.6-25.6 70.23-25.618 95.83 0l71.596 71.596 119.28-119.298-188.247-188.249zM471.326 216.101l-191.217 191.217c-6.656 6.674-17.476 6.674-24.132 0-6.674-6.674-6.674-17.46 0-24.132l191.217-191.217c3.328-3.328 7.698-5 12.066-5 4.37 0 8.738 1.672 12.066 5 6.672 6.674 6.672 17.46 0 24.132zM375.717 216.101l-95.61 95.61c-6.656 6.674-17.476 6.674-24.132 0-6.674-6.674-6.674-17.46 0-24.132l95.61-95.61c3.328-3.328 7.698-5 12.066-5s8.738 1.672 12.066 5c6.674 6.674 6.674 17.46 0 24.132z" />
<glyph unicode="&#xe904;" glyph-name="lan-b" d="M933.875 960h-843.822c-49.697 0-89.979-40.429-89.979-90.052v-843.895c0-49.697 40.429-90.052 90.052-90.052h843.822c49.697 0 90.052 40.429 90.052 90.052v843.895c0.073 49.624-40.429 90.052-90.125 90.052zM940.005 26.052c0-3.357-2.773-6.057-6.13-6.057h-843.822c-3.357 0-6.13 2.7-6.13 6.057v843.895c0 3.357 2.773 6.057 6.13 6.057h843.822c3.357 0 6.13-2.7 6.13-6.057v-843.895zM764.497 650.873h-78.376v112.091c0 16.201-14.887 29.336-33.35 29.336h-288.255c-18.39 0-33.35-13.136-33.35-29.336v-112.091h-71.735c-32.255 0-58.454-22.987-58.454-51.448v-444.351c0-28.461 26.125-51.448 58.454-51.448h98.226v290.445h50.062v-290.445h79.252v290.445h50.062v-290.445h75.092v290.445h50.062v-290.445h102.312c32.255 0 58.454 22.987 58.454 51.448v444.351c0 28.461-26.198 51.448-58.454 51.448z" />
<glyph unicode="&#xe905;" glyph-name="power-c" d="M597.333 448h-170.667v512h170.667v-512zM777.088 885.163l-51.755-68.224c127.317-73.899 213.333-211.413 213.333-368.939 0-235.264-191.403-426.667-426.667-426.667s-426.667 191.403-426.667 426.667c0 157.525 86.016 295.040 213.333 368.939l-51.755 68.224c-147.84-89.728-246.912-251.605-246.912-437.163 0-282.752 229.248-512 512-512s512 229.248 512 512c0 185.557-99.072 347.435-246.912 437.163z" />
<glyph unicode="&#xe906;" glyph-name="power-bf" d="M512.005 408.613c21.336 0 39.806 7.779 55.385 23.382 15.584 15.581 23.395 34.053 23.395 55.381v393.85c0 21.338-7.803 39.797-23.395 55.379-15.577 15.599-34.049 23.395-55.385 23.395-21.338 0-39.797-7.805-55.387-23.395-15.59-15.581-23.386-34.049-23.386-55.379v-393.853c0-21.328 7.796-39.797 23.386-55.381 15.59-15.601 34.055-23.38 55.387-23.38zM935.092 619.69c-33.032 66.046-79.487 121.433-139.381 166.147-17.23 13.126-36.717 18.256-58.461 15.387-21.746-2.873-38.976-13.129-51.693-30.764-13.129-17.228-18.144-36.612-15.075-58.151 3.067-21.55 13.232-38.877 30.462-52.006 40.188-30.357 71.284-67.49 93.221-111.387 21.951-43.893 32.913-90.667 32.913-140.297 0-42.679-8.307-83.388-24.919-122.164-16.61-38.769-39.077-72.301-67.389-100.612-28.311-28.303-61.834-50.762-100.61-67.38-38.769-16.618-79.487-24.938-122.153-24.938-42.66 0-83.38 8.32-122.149 24.938-38.774 16.618-72.307 39.077-100.619 67.38-28.298 28.311-50.762 61.841-67.38 100.612-16.614 38.776-24.923 79.485-24.923 122.164 0 49.63 10.975 96.398 32.922 140.297 21.948 43.893 53.025 81.024 93.228 111.387 17.23 13.137 27.38 30.462 30.462 52.006 3.076 21.53-1.946 40.922-15.077 58.151-12.719 17.636-29.839 27.893-51.383 30.764-21.541 2.871-41.136-2.261-58.774-15.387-59.903-44.714-106.356-100.101-139.388-166.147-33.029-66.055-49.538-136.411-49.538-211.072 0-64.009 12.514-125.13 37.536-183.386 25.031-58.256 58.666-108.503 100.929-150.766 42.25-42.252 92.508-75.903 150.768-100.905 58.256-25.035 119.384-37.56 183.382-37.56 64 0 125.125 12.525 183.384 37.56 58.263 25.011 108.518 58.655 150.775 100.905 42.25 42.25 75.885 92.51 100.912 150.766s37.53 119.392 37.53 183.386c0.002 74.663-16.485 145.020-49.514 211.072z" />
<glyph unicode="&#xe907;" glyph-name="islem" horiz-adv-x="1294" d="M169.496 957.043c-80.589-14.602-141.77-71.532-163.581-151.936-4.251-16.081-4.806-21.071-4.621-50.276 0-29.019 0.555-34.195 4.806-50.461 9.057-34.195 26.247-64.508 50.83-90.386 29.759-31.053 63.030-49.721 106.097-59.148l19.038-4.251h929.733l19.038 4.251c43.067 9.427 76.338 28.095 106.097 59.148 24.583 25.877 41.773 56.191 50.83 90.386 4.251 16.266 4.806 21.441 4.806 50.461 0.185 29.019-0.37 34.195-4.621 50.091-10.351 38.077-27.726 68.944-53.973 95.191-26.247 26.062-56.745 43.437-95.191 54.157l-17.744 4.806-468.563 0.37c-398.325 0.185-470.781-0.185-482.981-2.403zM184.838 344.491c-49.352-4.621-93.528-26.247-128.647-63.214-24.029-25.323-41.034-55.636-50.091-89.646-4.436-16.266-4.991-21.256-4.991-50.461 0-29.019 0.555-34.195 4.806-50.276 13.863-51.2 43.806-93.343 86.134-121.069 19.778-13.123 37.707-21.071 63.030-28.095l17.744-4.806h948.217l17.744 4.806c38.631 10.721 69.129 28.28 95.191 54.527 26.617 26.617 43.622 56.93 53.973 94.822 4.251 15.896 4.806 21.071 4.621 50.091 0 29.019-0.555 34.195-4.806 50.461-20.332 76.523-78.001 131.050-158.406 150.273-13.123 3.142-38.446 3.327-471.336 3.697-251.564 0.185-464.497-0.37-473.184-1.109zM1129.727 274.807c24.768-9.427 40.849-19.408 57.115-35.674 31.053-30.683 44.731-67.651 41.404-110.903-3.512-44.546-33.271-89.461-72.826-109.794-8.687-4.436-21.256-10.166-27.91-12.569l-12.014-4.251h-937.126l-12.014 4.251c-6.654 2.403-19.223 8.133-27.91 12.569-39.555 20.332-69.314 65.248-72.826 109.794-3.327 43.252 10.351 80.219 41.404 110.903 12.384 12.384 19.408 17.744 32.531 24.399 16.82 8.503 30.683 13.678 40.664 14.972 3.142 0.37 215.521 0.739 472.26 0.555l466.715-0.185 10.536-4.066z" />
<glyph unicode="&#xe908;" glyph-name="reload" d="M234.521 756.938c151.181 136.753 377.431 138.844 530.703 14.010l-121.489-4.6c-15.683-0.627-27.811-13.592-27.183-29.274 0.627-15.265 13.173-27.183 28.229-27.183 0.418 0 0.627 0 1.046 0l186.52 6.9c15.265 0.627 27.183 12.964 27.183 28.229v2.091c0 0.418 0 0.627 0 1.046v0.209l-6.9 184.429c-0.627 15.683-13.801 27.811-29.274 27.183-15.683-0.627-27.811-13.592-27.183-29.274l4.391-115.634c-75.904 62.104-169.373 98.069-269.325 103.088-123.789 6.273-242.768-36.175-334.565-119.398-126.298-114.379-179.829-288.353-139.681-453.962 3.137-12.964 14.637-21.538 27.392-21.538 2.3 0 4.391 0.209 6.691 0.836 15.055 3.764 24.465 19.028 20.701 34.084-35.129 145.536 11.71 298.39 122.743 398.759zM967.009 551.181c-3.764 15.055-19.028 24.465-34.084 20.701s-24.465-19.028-20.701-34.084c35.338-145.536-11.71-298.39-122.743-398.759-77.995-70.468-175.856-105.179-273.298-105.179-93.051 0-185.892 31.575-260.751 93.887l122.953 11.082c15.474 1.464 26.974 15.055 25.511 30.738s-15.055 26.974-30.738 25.511l-185.892-16.728c-15.474-1.464-26.974-15.055-25.511-30.738l16.728-185.892c1.255-14.637 13.592-25.72 28.020-25.72 0.836 0 1.673 0 2.509 0.209 15.474 1.464 26.974 15.055 25.511 30.738l-10.037 113.125c75.904-61.476 168.955-97.233 268.279-102.251 7.946-0.418 15.892-0.627 23.629-0.627 115.216 0 224.786 42.239 310.936 120.025 126.298 114.379 179.829 288.144 139.681 453.962z" />
<glyph unicode="&#xe909;" glyph-name="share" horiz-adv-x="1131" d="M1099.074 460.78c-0.152 0.003-0.331 0.004-0.51 0.004-17.535 0-31.768-14.143-31.913-31.644v-287.979c0-78.316-65.315-141.866-145.278-141.866h-711.261c-80.206 0-145.284 63.782-145.284 141.866v292.655c-0.142 17.514-14.373 31.658-31.907 31.658-0.179 0-0.358-0.001-0.537-0.004h0.027c-0.15 0.003-0.327 0.004-0.504 0.004-17.534 0-31.765-14.143-31.907-31.644v-292.651c0-113.257 94.366-205.179 210.112-205.179h711.261c115.978 0 210.112 92.149 210.112 205.173v287.965c-0.232 17.526-14.493 31.644-32.053 31.644-0.126 0-0.252-0.001-0.378-0.002h0.019zM382.523 704.651l150.805 147.258v-642.257c0.478-17.537 14.809-31.572 32.417-31.572s31.939 14.035 32.416 31.528l0.001 0.044v642.257l150.8-147.258c5.887-5.747 13.926-9.313 22.798-9.38h0.013c0.1-0.001 0.218-0.002 0.336-0.002 8.792 0 16.746 3.588 22.478 9.379l0.003 0.003c5.886 5.658 9.543 13.598 9.543 22.392s-3.657 16.734-9.533 22.382l-0.010 0.010-206.033 201.191c-5.898 5.73-13.93 9.289-22.794 9.374h-0.017c-0.080 0.001-0.175 0.001-0.269 0.001-8.811 0-16.784-3.587-22.54-9.38l-0.002-0.002-206.033-201.185c-5.889-5.657-9.548-13.597-9.548-22.392s3.659-16.736 9.538-22.382l0.010-0.010c5.917-5.662 13.957-9.147 22.811-9.147s16.894 3.485 22.823 9.158l-0.012-0.012z" />
<glyph unicode="&#xe90a;" glyph-name="kasa" d="M0 448c0-282.753 229.248-512 512.002-512 282.752 0 512 229.248 512 512-0.002 282.752-229.248 512-512 512-282.753 0-512.002-229.248-512.002-512zM938.763 448c0-235.291-191.471-426.762-426.762-426.762s-426.762 191.471-426.762 426.762c0 235.291 191.469 426.76 426.762 426.76 235.291 0 426.762-191.469 426.762-426.76zM512.002 595.702c-72.992-9.755-129.34-72.107-129.34-147.767 0-75.658 56.348-138.011 129.34-147.767v-215.368c200.54 0 363.133 162.594 363.133 363.133 0 200.541-162.594 363.135-363.133 363.135v-215.366zM386.881 736.27c0-22.834-18.511-41.345-41.345-41.345s-41.345 18.511-41.345 41.345c0 22.834 18.511 41.345 41.345 41.345s41.345-18.511 41.345-41.345zM265.035 614.433c0-22.834-18.511-41.345-41.345-41.345s-41.345 18.511-41.345 41.345c0 22.834 18.511 41.345 41.345 41.345s41.345-18.511 41.345-41.345zM220.408 448c0-22.834-18.511-41.345-41.345-41.345s-41.345 18.511-41.345 41.345c0 22.834 18.511 41.345 41.345 41.345s41.345-18.511 41.345-41.345zM265.067 281.525c0-22.834-18.511-41.345-41.345-41.345s-41.345 18.511-41.345 41.345c0 22.834 18.511 41.345 41.345 41.345s41.345-18.511 41.345-41.345zM386.881 159.71c0-22.834-18.511-41.345-41.345-41.345s-41.345 18.511-41.345 41.345c0 22.834 18.511 41.345 41.345 41.345s41.345-18.511 41.345-41.345z" />
<glyph unicode="&#xe90b;" glyph-name="home" horiz-adv-x="956" d="M455.339 938.701c-11.196-2.458-30.583-10.24-43.008-17.203-23.074-12.834-142.814-113.596-215.040-180.634-12.015-11.196-38.093-34.816-58.027-52.429-74.274-65.946-97.894-92.297-114.961-127.932-3.686-7.646-8.329-20.070-10.377-27.443l-3.686-13.38v-441.003l3.686-13.244c7.236-26.078 19.934-48.469 38.502-67.311 22.801-23.074 51.063-37.41 83.695-42.325 20.070-3.004 663.415-3.004 683.486 0 32.631 4.915 60.894 19.251 83.695 42.325 18.569 18.842 31.266 41.233 38.502 67.311l3.686 13.244 0.41 213.675c0.273 154.419 0 216.678-1.092 224.597-3.277 22.665-13.653 46.831-29.628 69.359-11.332 15.701-40.55 45.466-71.543 72.499-14.609 12.834-35.499 31.13-46.421 40.55-10.786 9.421-35.089 31.539-53.794 49.152-55.979 52.292-107.042 97.485-163.84 145.135-24.439 20.48-28.945 23.757-43.691 30.857-22.118 10.923-36.864 15.019-55.979 15.838-10.513 0.273-17.886-0.137-24.576-1.638zM490.701 876.715c17.067-4.779 25.122-9.694 49.289-30.037 53.794-45.329 108.681-93.798 154.146-136.397 42.189-39.322 48.606-45.193 80.691-72.909 42.325-36.727 65.809-58.027 75.366-68.813 12.561-14.336 21.709-26.761 26.214-36.318 8.738-18.295 8.329-5.871 8.329-233.199 0-201.523-0.137-207.258-2.731-217.498-8.465-33.178-35.499-58.709-68.267-64.444-10.103-1.638-56.388-1.911-341.333-1.502-314.163 0.273-330.138 0.41-337.92 2.867-22.938 6.963-43.281 23.757-53.521 44.1-10.786 21.299-10.103 5.734-9.694 241.391l0.41 210.261 3.686 9.967c10.65 29.082 30.993 52.565 97.485 111.684 20.207 17.886 48.742 43.691 63.351 57.207 48.060 44.373 98.577 88.474 148.139 129.161 51.2 42.052 61.167 49.015 78.507 54.613 9.83 3.14 16.384 3.14 27.853-0.137z" />
<glyph unicode="&#xe90c;" glyph-name="home-5" horiz-adv-x="981" d="M466.333 910.131c-18.071-3.222-44.546-14.148-60.095-24.795-26.896-18.491-120.891-97.777-173.282-146.246-11.627-10.926-37.822-34.46-57.994-52.671-62.477-55.613-84.329-80.267-100.719-113.466-9.526-19.331-14.428-35.161-16.67-53.511-1.961-16.25-2.101-351.886-0.14-369.116 5.043-44.406 28.437-86.15 62.757-112.066 19.051-14.428 48.749-27.176 71.722-30.818 6.024-0.84 106.182-1.401 297.815-1.401 317.846 0 297.815-0.56 323.87 8.545 14.849 5.183 30.118 13.308 42.445 22.413 11.487 8.545 29.697 27.316 37.542 38.803 13.308 19.752 23.814 47.208 26.756 70.601 0.84 7.424 1.401 75.504 1.401 188.831 0 192.333 0.14 189.531-7.705 213.625-4.623 14.008-14.989 34.040-25.495 48.889-11.207 15.689-47.208 51.41-82.368 81.668-31.378 26.896-37.402 32.359-82.789 74.524-33.059 30.818-90.073 80.967-126.634 111.365-18.491 15.549-27.736 22.133-37.822 27.316-33.48 17.23-63.317 22.833-92.594 17.51zM506.397 836.027c15.829-5.323 24.234-10.646 47.628-30.258 42.865-35.861 87.691-75.504 126.074-111.365 35.441-33.059 43.846-40.624 79.146-71.302 64.858-56.453 83.209-79.006 88.252-108.704 1.121-6.304 1.401-62.196 1.121-186.169l-0.42-177.204-3.222-9.806c-9.105-27.036-28.577-47.348-56.033-57.994l-9.385-3.642-287.028-0.42c-318.687-0.42-294.172-1.121-314.344 9.105-13.028 6.444-28.577 20.872-35.721 32.779-2.942 4.903-7.004 14.008-9.105 20.172l-3.782 11.207v362.813l3.782 11.207c7.284 21.573 20.032 38.943 49.729 67.94 11.347 11.207 30.818 29.277 43.145 40.063 12.327 10.926 35.301 31.659 51.13 46.087 48.468 44.546 93.155 83.069 142.183 122.432 29.837 24.094 34.18 26.896 50.149 32.639 13.028 4.623 23.814 4.763 36.702 0.42z" />
<glyph unicode="&#xe90d;" glyph-name="tick-af" d="M512 960c-282.328 0-512-229.672-512-512s229.672-512 512-512 512 229.672 512 512-229.672 512-512 512zM771.5 556.5l-277.336-277.328c-8.32-8.32-19.242-12.508-30.164-12.508s-21.844 4.188-30.164 12.508l-138.664 138.664c-16.688 16.68-16.688 43.648 0 60.328 16.68 16.688 43.641 16.688 60.328 0l108.5-108.5 247.172 247.164c16.68 16.688 43.641 16.688 60.328 0 16.68-16.68 16.68-43.641 0-60.328z" />
<glyph unicode="&#xe90e;" glyph-name="set-c" d="M997.446 781.13h-631.104v24.954c0 36.6-29.776 66.376-66.376 66.376h-103c-36.6 0-66.376-29.776-66.376-66.376v-24.954h-104.040c-14.664 0-26.55-11.89-26.55-26.552s11.886-26.55 26.55-26.55h104.036v-24.946c0-36.6 29.776-66.376 66.376-66.376h103.002c36.6 0 66.376 29.776 66.376 66.376v24.946h631.106c14.664 0 26.55 11.89 26.55 26.55 0.002 14.662-11.886 26.552-26.55 26.552zM313.242 703.082c0-7.32-5.956-13.276-13.276-13.276h-103.002c-7.32 0-13.276 5.956-13.276 13.276v103.002c0 7.32 5.956 13.276 13.276 13.276h103.002c7.32 0 13.276-5.956 13.276-13.276v-103.002zM997.45 485.41h-104.038v24.962c0 36.6-29.776 66.376-66.376 66.376h-103.002c-36.6 0-66.376-29.776-66.376-66.376v-24.962h-631.108c-14.664 0-26.55-11.888-26.55-26.55s11.886-26.55 26.55-26.55h631.106v-24.938c0-36.6 29.776-66.376 66.376-66.376h103.002c36.6 0 66.376 29.776 66.376 66.376v24.938h104.038c14.664 0 26.55 11.89 26.55 26.55 0.002 14.662-11.884 26.55-26.548 26.55zM840.31 407.37c0-7.32-5.956-13.276-13.276-13.276h-103.002c-7.32 0-13.276 5.956-13.276 13.276v103.002c0 7.32 5.956 13.276 13.276 13.276h103.002c7.32 0 13.276-5.956 13.276-13.276v-103.002zM997.45 167.972h-444.586v24.946c0 36.6-29.776 66.376-66.376 66.376h-103.002c-36.6 0-66.376-29.776-66.376-66.376v-24.946h-290.56c-14.664 0-26.55-11.89-26.55-26.55 0-14.662 11.886-26.55 26.55-26.55h290.558v-24.954c0-36.6 29.776-66.376 66.376-66.376h103.002c36.6 0 66.376 29.776 66.376 66.376v24.954h444.586c14.664 0 26.55 11.89 26.55 26.55 0.002 14.664-11.884 26.55-26.548 26.55zM499.762 89.916c0-7.32-5.956-13.276-13.276-13.276h-103.002c-7.32 0-13.276 5.956-13.276 13.276v103.002c0 7.32 5.956 13.276 13.276 13.276h103.002c7.32 0 13.276-5.956 13.276-13.276v-103.002z" />
<glyph unicode="&#xe90f;" glyph-name="user" d="M874.040 298.040c-55.766 55.764-122.142 97.046-194.562 122.036 77.564 53.422 128.522 142.828 128.522 243.924 0 163.214-132.786 296-296 296s-296-132.786-296-296c0-101.096 50.958-190.502 128.524-243.924-72.42-24.99-138.796-66.272-194.562-122.036-96.704-96.706-149.962-225.28-149.962-362.040h80c0 238.206 193.794 432 432 432s432-193.794 432-432h80c0 136.76-53.258 265.334-149.96 362.040zM512 448c-119.102 0-216 96.896-216 216s96.898 216 216 216c119.102 0 216-96.896 216-216s-96.898-216-216-216z" />
<glyph unicode="&#xe910;" glyph-name="cart-a" d="M923.13 81.498h-820.050c-57.267 0-103.080 45.813-103.080 103.077v526.849c0 57.267 45.813 103.080 103.080 103.080h817.76c57.267 0 103.080-45.813 103.080-103.080v-529.138c2.289-54.976-43.524-100.789-100.789-100.789zM103.080 745.784c-18.326 0-34.359-16.035-34.359-34.359v-529.138c0-18.326 16.035-34.359 34.359-34.359h817.76c18.326 0 34.359 16.035 34.359 34.359v529.138c0 18.326-16.035 34.359-34.359 34.359h-817.76zM34.359 654.158h955.198v-128.276h-955.198v128.276zM868.154 294.527c0-41.747-33.843-75.59-75.59-75.59s-75.59 33.843-75.59 75.59c0 41.747 33.843 75.59 75.59 75.59s75.59-33.843 75.59-75.59zM767.365 294.527c0-41.747-33.843-75.59-75.59-75.59s-75.59 33.843-75.59 75.59c0 41.747 33.843 75.59 75.59 75.59s75.59-33.843 75.59-75.59zM387.12 415.931h-222.194c-6.872 0-11.454 4.582-11.454 11.454s4.582 11.454 11.454 11.454h222.192c6.872 0 11.454-4.582 11.454-11.454 0-4.582-4.582-11.454-11.452-11.454z" />
<glyph unicode="&#xe911;" glyph-name="cart-b" d="M930.905 494.54h-142.731c-9.148 61.341-34.928 210.57-73.54 249.179-35.635 35.635-143.089 67.773-269.406 103.090-26.454 7.409-49.501 13.841-65.864 18.999-68.727 21.726-154.726 88.568-155.59 89.249-6.41 5.022-15.091 6.34-22.636 3.386-1.999-0.772-201.131-79.544-201.131-300.996 0-8.295 4.409-15.977 11.592-20.136 73.863-42.818 103.635-91.862 132.363-139.316 14.611-24.056 28.928-47.022 47.742-67.295-3.279-9.515-5.513-19.224-5.513-29.249v-372.361c0-51.34 41.773-93.091 93.091-93.091h651.631c51.318 0 93.091 41.749 93.091 93.091v372.361c-0.007 51.34-41.779 93.091-93.097 93.091zM183.777 522.129c-27.41 45.226-61.226 100.976-136.954 148.316 6.227 153.044 121.908 221.271 159.544 239.452 26.954-19.887 97.136-68.932 158.998-88.454 16.728-5.295 40.317-11.886 67.317-19.455 81.955-22.931 219.135-61.295 249.043-91.182 21.89-21.91 46.184-131.689 59.306-216.271h-96.933l-40.691 101.726c-2.681 6.818-8.454 11.932-15.545 13.841-13.409 3.613-51.272 14.522-65.454 21.613-10.228 5.114-21.499 3.591-28.136-5.954-1.909-1.545-8.908-4.614-14.001-6.84-17.681-7.774-41.954-18.386-57.453-41.659-4.318-6.454-5.090-14.659-2.136-21.818 26.136-62.954 131.545-111.204 175.68-129.021 36.726-14.841 104.545-73.681 111.955-110.135 1.682-8.341-0.591-12.022-3.319-14.749-33.364-33.294-104.545-9.886-156.498 25.976-58.501 40.363-126.771 69.34-173.907 73.817-7.318 0.705-14.227 1.045-21.046 1.364-30.41 1.409-54.453 2.522-107.135 40.841-26.821 19.501-43.411 46.887-62.637 78.59zM593.985 494.54h-34.141c-37.409 19.54-72.617 43.193-89.207 66.477 8.182 6.454 18.726 11.068 28.318 15.294 5.954 2.592 11.5 5.022 16.455 7.841 15.999-6.137 36.41-12.251 49.090-15.864l29.485-73.749zM930.905-17.456h-651.628c-25.682 0-46.544 20.886-46.544 46.544h744.719c0-25.658-20.865-46.544-46.546-46.544zM977.451 75.635h-744.721v46.544h744.719v-46.544zM977.451 168.724h-744.721v227.867c55.204-36.988 87.579-38.943 118.635-40.392 6.092-0.295 12.273-0.567 18.772-1.183 39.227-3.751 100.271-30.181 151.908-65.818 40.045-27.613 91.862-50.432 138.817-50.432 28.774 0 55.727 8.568 77.046 29.864 15 15 20.546 34.682 15.999 56.932-9.013 44.395-59.426 93.377-102.054 122.432h279.052c25.682 0 46.544-20.886 46.544-46.544v-232.726z" />
<glyph unicode="&#xe912;" glyph-name="tick" d="M302.080 545.28l-71.68-71.68 230.4-230.4 512 512-71.68 71.68-440.32-440.32-158.72 158.72zM921.6 448c0-225.28-184.32-409.6-409.6-409.6s-409.6 184.32-409.6 409.6 184.32 409.6 409.6 409.6c40.96 0 76.8-5.12 112.64-15.36l81.922 81.92c-61.442 20.48-128.002 35.84-194.562 35.84-281.6 0-512-230.4-512-512s230.4-512 512-512 512 230.4 512 512h-102.4z" />
<glyph unicode="&#xe913;" glyph-name="tick-a" d="M512 960c-282.599 0-511.37-229.048-511.37-512s228.771-512 511.37-512 511.37 229.048 511.37 512-228.771 512-511.37 512zM512 25.831c-233.256 0-421.656 188.634-421.656 422.179s188.399 422.169 421.656 422.169 421.656-188.634 421.656-422.179-188.399-422.169-421.656-422.169zM682.457 614.174l-237.742-238.030-112.143 112.281c-17.943 17.964-44.857 17.964-62.8 0s-17.943-44.91 0-62.875l143.542-143.724c8.971-8.982 22.429-13.478 31.4-13.478s22.429 4.496 31.4 13.478l269.142 269.473c17.943 17.964 17.943 44.91 0 62.875s-44.857 17.964-62.8 0z" />
<glyph unicode="&#xe914;" glyph-name="tick-b" d="M511.992 960c-281.253 0-511.368-230.405-511.368-511.992s230.116-511.992 511.368-511.992 511.368 230.405 511.368 511.992-230.116 511.992-511.368 511.992zM511.992 64.010c-210.939 0-383.526 172.8-383.526 383.998s172.587 383.998 383.526 383.998 383.526-172.8 383.526-383.998-172.587-383.998-383.526-383.998zM659.011 620.808l-210.939-211.198-89.489 89.596c-25.568 25.599-63.921 25.599-89.489 0s-25.568-63.997 0-89.596l134.234-134.402c12.784-12.799 25.568-19.207 44.745-19.207s31.961 6.407 44.745 19.207l255.684 256.004c25.568 25.599 25.568 63.997 0 89.596s-63.921 25.599-89.489 0z" />
<glyph unicode="&#xe915;" glyph-name="set-a" d="M512 960c-282.769 0-512-229.231-512-512s229.231-512 512-512 512 229.231 512 512c-0.32 282.637-229.363 511.68-512 512zM512-29.867c-263.919 0-477.867 213.948-477.867 477.867s213.948 477.867 477.867 477.867 477.867-213.948 477.867-477.867c-0.297-263.795-214.071-477.57-477.867-477.867zM595.61 243.2c-6.839 33.513-33.030 59.701-66.543 66.543v547.857h-34.133v-547.859c-46.176-9.425-75.968-54.498-66.543-100.674 6.839-33.513 33.030-59.701 66.543-66.543v-138.257h34.133v138.259c46.176 9.425 75.968 54.498 66.543 100.674zM512 174.933c-28.277 0-51.2 22.923-51.2 51.2s22.923 51.2 51.2 51.2 51.2-22.923 51.2-51.2c-0.030-28.265-22.935-51.17-51.2-51.2zM322.543 465.067c-6.839 33.513-33.030 59.701-66.543 66.543v155.324h-34.133v-155.326c-46.176-9.425-75.968-54.498-66.543-100.674 6.839-33.513 33.030-59.701 66.543-66.543v-240.657h34.133v240.659c46.176 9.425 75.968 54.498 66.543 100.674zM238.933 396.8c-28.277 0-51.2 22.923-51.2 51.2s22.923 51.2 51.2 51.2 51.2-22.923 51.2-51.2c-0.030-28.265-22.935-51.17-51.2-51.2zM868.676 618.667c-6.839 33.513-33.030 59.701-66.543 66.543v104.124h-34.133v-104.126c-46.176-9.425-75.968-54.498-66.543-100.674 6.839-33.513 33.030-59.701 66.543-66.543v-274.79h34.133v274.793c46.176 9.425 75.968 54.498 66.543 100.674zM785.067 550.4c-28.277 0-51.2 22.923-51.2 51.2s22.923 51.2 51.2 51.2 51.2-22.923 51.2-51.2c-0.030-28.265-22.935-51.17-51.2-51.2zM768 209.067h34.133v-85.333h-34.133v85.333zM221.867 789.333h34.133v-68.267h-34.133v68.267z" />
<glyph unicode="&#xe916;" glyph-name="tost-af" d="M512 960c-282.313 0-512-229.687-512-512s229.687-512 512-512 512 229.687 512 512-229.687 512-512 512zM731.429 210.286h-438.857c-20.187 0-36.571 16.384-36.571 36.571s16.384 36.571 36.571 36.571h438.857c20.187 0 36.571-16.384 36.571-36.571s-16.384-36.571-36.571-36.571zM731.429 411.429h-438.857c-20.187 0-36.571 16.384-36.571 36.571s16.384 36.571 36.571 36.571h438.857c20.187 0 36.571-16.384 36.571-36.571s-16.384-36.571-36.571-36.571zM731.429 612.571h-438.857c-20.187 0-36.571 16.384-36.571 36.571s16.384 36.571 36.571 36.571h438.857c20.187 0 36.571-16.384 36.571-36.571s-16.384-36.571-36.571-36.571z" />
<glyph unicode="&#xe917;" glyph-name="menu-bf" d="M640 448c0-70.692-57.308-128-128-128s-128 57.308-128 128c0 70.692 57.308 128 128 128s128-57.308 128-128zM640 64c0-70.692-57.308-128-128-128s-128 57.308-128 128c0 70.692 57.308 128 128 128s128-57.308 128-128zM640 832c0-70.692-57.308-128-128-128s-128 57.308-128 128c0 70.692 57.308 128 128 128s128-57.308 128-128z" />
<glyph unicode="&#xe918;" glyph-name="menu-b" d="M512 576c-70.584 0-128-57.416-128-128s57.416-128 128-128 128 57.416 128 128-57.416 128-128 128zM512 362.666c-47.042 0-85.334 38.27-85.334 85.334s38.292 85.334 85.334 85.334 85.334-38.27 85.334-85.334-38.292-85.334-85.334-85.334zM512 192c-70.584 0-128-57.416-128-128s57.416-128 128-128 128 57.416 128 128c0 70.584-57.416 128-128 128zM512-21.334c-47.042 0-85.334 38.27-85.334 85.334s38.292 85.334 85.334 85.334 85.334-38.27 85.334-85.334-38.292-85.334-85.334-85.334zM512 704c70.584 0 128 57.416 128 128s-57.416 128-128 128-128-57.416-128-128 57.416-128 128-128zM512 917.334c47.042 0 85.334-38.27 85.334-85.334s-38.292-85.334-85.334-85.334-85.334 38.272-85.334 85.334 38.292 85.334 85.334 85.334z" />
<glyph unicode="&#xe919;" glyph-name="tost-a" d="M512 960c-282.313 0-512-229.687-512-512s229.687-512 512-512 512 229.687 512 512-229.687 512-512 512zM512-27.429c-262.162 0-475.429 213.285-475.429 475.429s213.266 475.429 475.429 475.429 475.429-213.285 475.429-475.429-213.266-475.429-475.429-475.429zM731.429 667.429h-438.857c-10.112 0-18.286-8.192-18.286-18.286s8.174-18.286 18.286-18.286h438.857c10.112 0 18.286 8.192 18.286 18.286s-8.174 18.286-18.286 18.286zM731.429 466.286h-438.857c-10.112 0-18.286-8.192-18.286-18.286s8.174-18.286 18.286-18.286h438.857c10.112 0 18.286 8.192 18.286 18.286s-8.174 18.286-18.286 18.286zM731.429 265.143h-438.857c-10.112 0-18.286-8.192-18.286-18.286s8.174-18.286 18.286-18.286h438.857c10.112 0 18.286 8.192 18.286 18.286s-8.174 18.286-18.286 18.286z" />
<glyph unicode="&#xe91a;" glyph-name="set-bf" d="M358.975 346.873h-146.605c-6.744 0-12.217-5.485-12.217-12.217v-48.868c0-6.732 5.473-12.217 12.217-12.217h146.605c6.744 0 12.217 5.485 12.217 12.217v48.868c0 6.732-5.473 12.217-12.217 12.217zM511.994 960c-282.777 0-511.994-229.229-511.994-512.006s229.229-511.994 511.994-511.994 512.006 229.229 512.006 511.994c0 282.777-229.229 512.006-512.006 512.006zM395.626 285.788c0-20.207-16.444-36.651-36.651-36.651h-12.217v-69.222c0-20.207-16.444-36.651-36.651-36.651h-48.868c-20.207 0-36.651 16.444-36.651 36.651v69.222h-12.217c-20.207 0-36.651 16.444-36.651 36.651v48.868c0 20.207 16.444 36.651 36.651 36.651h12.217v299.319c0 20.207 16.444 36.651 36.651 36.651h48.868c20.207 0 36.651-16.444 36.651-36.651v-299.319h12.217c20.207 0 36.651-16.444 36.651-36.651v-48.868zM639.968 407.958c0-20.207-16.444-36.651-36.651-36.651h-12.217v-191.393c0-20.207-16.444-36.651-36.651-36.651h-48.868c-20.207 0-36.651 16.444-36.651 36.651v191.393h-12.217c-20.207 0-36.651 16.444-36.651 36.651v48.868c0 20.207 16.444 36.651 36.651 36.651h12.217v177.148c0 20.207 16.444 36.651 36.651 36.651h48.868c20.207 0 36.651-16.444 36.651-36.651v-177.148h12.217c20.207 0 36.651-16.444 36.651-36.651v-48.868zM884.31 322.439c0-20.207-16.444-36.651-36.651-36.651h-12.217v-105.873c0-20.207-16.444-36.651-36.651-36.651h-48.868c-20.207 0-36.651 16.444-36.651 36.651v105.873h-12.217c-20.207 0-36.651 16.444-36.651 36.651v48.868c0 20.207 16.444 36.651 36.651 36.651h12.217v262.667c0 20.207 16.444 36.651 36.651 36.651h48.868c20.207 0 36.651-16.444 36.651-36.651v-262.667h12.217c20.207 0 36.651-16.444 36.651-36.651v-48.868zM249.021 179.914c0-6.744 5.473-12.217 12.217-12.217h48.868c6.744 0 12.217 5.473 12.217 12.217v69.222h-73.303v-69.222zM322.324 670.638c0 6.732-5.473 12.217-12.217 12.217h-48.868c-6.744 0-12.217-5.485-12.217-12.217v-299.319h73.303v299.319zM847.658 383.524h-146.605c-6.744 0-12.217-5.485-12.217-12.217v-48.868c0-6.732 5.473-12.217 12.217-12.217h146.605c6.744 0 12.217 5.485 12.217 12.217v48.868c0 6.732-5.473 12.217-12.217 12.217zM493.363 179.914c0-6.744 5.473-12.217 12.217-12.217h48.868c6.744 0 12.217 5.473 12.217 12.217v191.393h-73.303v-191.393zM811.007 670.638c0 6.732-5.473 12.217-12.217 12.217h-48.868c-6.744 0-12.217-5.485-12.217-12.217v-262.667h73.303v262.667zM737.705 179.914c0-6.744 5.473-12.217 12.217-12.217h48.868c6.744 0 12.217 5.473 12.217 12.217v105.873h-73.303v-105.873zM566.665 670.638c0 6.732-5.473 12.217-12.217 12.217h-48.868c-6.744 0-12.217-5.485-12.217-12.217v-177.148h73.303v177.148zM603.317 469.056h-146.605c-6.744 0-12.217-5.485-12.217-12.217v-48.868c0-6.732 5.473-12.217 12.217-12.217h146.605c6.744 0 12.217 5.485 12.217 12.217v48.868c0 6.732-5.473 12.217-12.217 12.217z" />
<glyph unicode="&#xe91b;" glyph-name="tick-bf" d="M511.997 960c-282.314 0-511.997-229.678-511.997-511.997s229.684-512.003 511.997-512.003 511.997 229.684 511.997 512.003-229.678 511.997-511.997 511.997zM805.995 534.483l-321.662-321.662c-13.677-13.677-31.858-21.205-51.198-21.205s-37.521 7.528-51.198 21.205l-163.938 163.938c-13.677 13.677-21.21 31.858-21.21 51.198 0 19.346 7.533 37.526 21.21 51.203 13.672 13.677 31.853 21.21 51.198 21.21 19.34 0 37.526-7.533 51.198-21.215l112.734-112.729 270.458 270.458c13.677 13.677 31.858 21.205 51.198 21.205s37.521-7.528 51.198-21.205c28.241-28.241 28.241-74.171 0.011-102.402z" />
<glyph unicode="&#xe91c;" glyph-name="tick-c" d="M512-64c-282.306 0-512 229.674-512 511.997 0 282.326 229.694 512.003 512 512.003 282.309 0 512.003-229.677 512.003-512.003 0-282.323-229.694-511.997-512.003-511.997zM512 926.969c-264.112 0-478.969-214.873-478.969-478.972s214.857-478.969 478.969-478.969c264.115 0 478.972 214.871 478.972 478.969s-214.857 478.972-478.972 478.972zM417.35 229.609l-183.036 183.036 23.356 23.353 159.68-159.677 347.556 347.542 23.356-23.353z" />
<glyph unicode="&#xe91d;" glyph-name="close" horiz-adv-x="997" d="M29.17 931.034l-28.966-29.17 220.099-226.422c121.167-124.43 220.099-227.034 219.691-227.85-0.204-0.816-87.101-90.773-193.173-199.7-106.072-109.131-204.8-210.92-219.691-226.218l-26.926-27.946 28.966-28.762 28.966-28.966 220.303 226.422c120.963 124.43 220.099 226.422 220.303 226.422s99.34-101.992 220.303-226.422l220.303-226.422 28.966 28.966 28.966 28.762-26.926 27.946c-14.891 15.299-113.619 117.087-219.691 226.218-106.072 108.927-192.765 199.088-192.765 200.108s86.693 91.181 192.765 200.108c106.072 109.131 204.8 210.92 219.691 226.218l26.926 27.946-58.135 57.727-440.198-453.049-19.786 19.99c-10.811 11.015-101.992 104.848-202.76 208.676s-190.929 196.641-200.72 206.636l-17.543 17.747-28.966-28.966z" />
<glyph unicode="&#xe91e;" glyph-name="flash-af" d="M512 960c-282.768 0-512-229.232-512-512s229.232-512 512-512 512 229.232 512 512-229.232 512-512 512zM611.024 352.256l-107.68-162c-5.92-8.912-16.912-14.8-27.552-14.256-11.024 0.56-27.296 4.112-27.296 33.776 0 38.224 46.112 189.968 46.112 189.968s-7.184-0.24-14.608-0.24h-80c-30.544 0-48 16.72-48 48 0 18.176 26.944 50.736 48.848 85.296l116.8 172.96c5.936 8.912 19.776 14.8 30.416 14.256 11.008-0.56 27.424-8.544 27.424-31.792-3.424-27.2-47.776-192.224-49.264-192.224h97.776c26.512 0 48-21.488 48-48 0-11.664-33.744-61.504-60.976-95.744zM624 464h-110.56c-7.456-0.256-17.696 0.8-17.696 15.712 0 21.072 0.144 17.024 0.144 17.024l55.104 175.552c0 11.696-3.008 14.208-11.728 14.208s-10.896-7.392-15.696-14.704l-94.432-153.216c-5.392-8.064-45.136-59.744-45.136-68.576 0-8.848 7.152-18.496 16-18.496h108.592c10.128 0 19.408-2.832 19.408-16 0-8.848-0.336-16.032-0.336-16.032l-58.112-175.744c0-11.696 3.488-14.224 12.224-14.224 8.72 0 10.88 7.408 15.712 14.72l95.92 147.2c5.344 8.064 46.592 67.728 46.592 76.576s-7.152 16-16 16z" />
<glyph unicode="&#xe91f;" glyph-name="satis" horiz-adv-x="1065" d="M54.812 959.929c40.732 0.75 78.483-4.993 106.546-17.18l6.88-1.147v-1.147l4.587-1.147v-1.147h2.293v-1.147h3.44v-1.147l4.587-1.147v-1.147l4.587-1.147 1.147-2.293 6.88-2.293v-1.147l3.44-1.147 1.147-2.293h2.293v-1.147l3.44-1.147 1.147-2.293h2.293l2.293-3.44h2.293l3.44-4.587h2.293l14.893-16.034 6.873-5.727v-2.293l4.587-3.44 1.147-3.44 2.293-1.147v-2.293l2.293-1.147 1.147-3.44h1.147v-2.293l2.293-1.147 1.147-3.44h1.147v-2.293h1.147v-2.293h1.147v-2.293h1.147v-2.293l2.293-1.147 3.44-10.308h1.147v-2.293h1.147l1.147-4.587h1.147v-3.44h1.147v-2.293h1.147l1.147-6.872h1.147v-3.44h1.147v-3.44h1.147v-3.44h1.147v-3.44h1.147l1.147-9.162c4.070-11.958 5.325-27.792 9.166-40.087q1.72-12.025 3.44-24.052c4.46-14.175 5.876-31.63 10.311-45.813l1.147-11.453c3.306-10.492 4.735-23.86 8.019-34.361l1.147-11.453c2.726-8.647 4.167-19.979 6.88-28.633v-5.727c2.139-6.79 3.603-16.112 5.733-22.908v-5.727c7.224-22.941 8.745-50.569 16.040-73.301l1.147-11.453h1.147l3.44-22.906c6.667-21.263 8.293-46.347 14.893-67.575q0.573-5.725 1.147-11.453h1.147v-5.727h1.147v-4.587h1.147v-4.587h1.147v-3.44h1.147v-3.44h1.147v-3.44h1.147l2.293-6.872h1.147q0.573-2.293 1.147-4.587l2.293-1.147v-2.293l2.293-1.147v-2.293l4.587-3.44v-2.293l2.293-1.147 3.44-4.587h2.293l3.44-4.587h2.293l1.147-2.293h2.293l1.147-2.293 4.587-1.147v-1.147h2.293v-1.147l6.88-2.293v-1.147h3.44v-1.147h2.293v-1.147h4.587v-1.147h3.44v-1.147h4.587v-1.147h5.733v-1.147l29.787-1.147h307.998l5.733 6.872h1.147v2.293l3.44 2.293v2.293l3.44 2.293v2.293l2.293 1.147v2.293l3.44 2.293v2.293l2.293 1.147 1.147 3.44h1.147v2.293l2.293 1.147v2.293l2.293 1.147v2.293l2.293 1.147 1.147 4.587h1.147l1.147 3.44 2.293 1.147 1.147 4.587h1.147l1.147 3.44 2.293 1.147 1.147 4.587 2.293 1.147 1.147 4.587 2.293 1.147 1.147 4.587 2.293 1.147 1.147 4.587 2.293 1.147v2.293h1.147v2.293h1.147v2.293l2.293 1.147 2.293 6.872 2.293 1.147q1.147 3.44 2.293 6.872l2.293 1.147 2.293 6.871 2.293 1.147v2.293h1.147v2.293h1.147v2.293h1.147v2.293l2.293 1.147v2.293h1.147v2.293h1.147v2.293h1.147v2.293l2.293 1.147v2.293h1.147v2.293h1.147v2.293h1.147v2.293h1.147v2.293l2.293 1.147 2.293 6.872h1.147v2.293h1.147v2.293h1.147v2.293h1.147v2.293l2.293 1.147v2.293h1.147v2.293h1.147v2.293h1.147v2.293h1.147v2.293h1.147v2.293h1.147v2.293h1.147v2.293l2.293 1.147 1.147 4.587h1.147v2.293h1.147v2.293h1.147v2.293h1.147v2.293h1.147l1.147 4.587h1.147l1.147 4.587h1.147v2.293h1.147v2.293h1.147v2.293h1.147v2.293h1.147v2.293h1.147v2.293h1.147v2.293h1.147v2.293h1.147v2.293h1.147v2.293h1.147l2.293 6.872h1.147q1.147 3.44 2.293 6.872h1.147l1.147 4.587h1.147l1.147 4.587h1.147v2.293h1.147v2.293h1.147v2.293h1.147v2.293h1.147v2.293h1.147l14.894 33.214 2.293 1.147v2.293l4.587 3.44v2.293l4.587 3.44v1.147h2.293l2.293 3.44h2.293l1.147 2.293 3.44 1.147v1.147h2.293v1.147h2.293v1.147c5.114 2.241 26.684 7.194 35.515 4.587v-1.147l13.748-2.293v-1.147l6.873-2.293v-1.147h2.293v-1.147l3.44-1.147 1.147-2.293h2.293l3.44-4.587 6.88-5.727v-2.293l2.293-1.147v-2.293l2.293-1.147v-2.293h1.147q0.573-2.293 1.147-4.587h1.147l1.147-6.871h1.147l1.147-11.454h1.147l-1.147-20.615h-1.147v-4.587l-11.457-25.198h-1.147l-1.147-4.587h-1.147v-3.44h-1.147q-1.147-3.44-2.293-6.872h-1.147v-2.293h-1.147v-2.293h-1.147v-2.293h-1.147v-2.293h-1.147v-2.293h-1.147v-2.293h-1.147v-2.293h-1.147v-2.293h-1.147q-0.573-2.293-1.147-4.587-24.628-48.672-49.263-97.355l-2.293-1.147-1.147-4.587h-1.147v-2.293h-1.147v-2.293h-1.147v-2.293l-2.293-1.147v-2.293h-1.147v-2.293h-1.147v-2.293h-1.147v-2.293h-1.147v-2.293l-2.293-1.147v-2.293h-1.147v-2.293h-1.147v-2.293l-2.293-1.147v-2.293h-1.147v-2.293h-1.147v-2.293h-1.147v-2.293l-2.293-1.147v-2.293h-1.147v-2.293l-2.293-1.147-2.293-6.872-2.293-1.147-1.147-4.587-2.293-1.147-1.147-4.587-2.293-1.147-1.147-4.587-2.293-1.147-1.147-4.587-2.293-1.147v-2.293h-1.147v-2.293h-1.147l-1.147-3.44-2.293-1.147-1.147-4.587-2.293-1.147v-2.293l-2.293-1.147v-2.293l-2.293-1.147v-2.293l-2.293-1.147v-2.293l-2.293-1.147v-2.293l-2.293-1.147v-2.293l-2.293-1.147v-2.293l-2.293-1.147v-2.293h-1.147l-1.147-3.44-2.293-1.147v-2.293l-2.293-1.147-1.147-3.44-3.44-2.293v-2.293l-3.44-2.293v-2.293l-3.44-2.293v-2.293l-3.44-2.293v-2.293l-4.587-3.44v-2.293l-6.873-5.727v-2.293l-12.602-11.453-11.457-12.599h-2.293q-1.147-1.72-2.293-3.44h-2.293l-2.293-3.44h-2.293l-1.147-2.293-4.587-1.147-1.147-2.293h-2.293v-1.147h-2.293v-1.147h-3.44v-1.147h-2.293v-1.147h-3.44v-1.147l-16.039-1.147c-11.687-3.277-32.933-1.147-46.972-1.147h-257.777c-11.553 0-27.111-1.55-36.661 1.147h-19.526v1.147h-10.311l-34.37 6.872v1.147h-3.44v1.147h-3.44v1.147l-8.020 1.147v1.147h-2.293v1.147l-6.88 1.147v1.147h-2.293v1.147h-3.44v1.147l-6.88 2.293v1.147h-2.293v1.147h-2.293v1.147h-2.293v1.147h-2.293v1.147h-2.293v1.147h-2.293v1.147h-2.293l-1.147 2.293-4.587 1.147v1.147l-3.44 1.147-1.147 2.293h-2.293v1.147l-3.44 1.147-1.147 2.293h-2.293l-1.147 2.293-3.44 1.147-3.44 4.587h-2.293l-5.733 6.872h-2.293l-2.293 3.44-9.166 8.017v2.293l-8.020 6.872v2.293l-3.44 2.293v2.293l-3.44 2.293v2.293l-3.44 2.293v2.293l-2.293 1.147-1.147 4.587-2.293 1.147-1.147 3.44h-1.147v2.293h-1.147v2.293h-1.147v2.293h-1.147v2.293h-1.147v2.293h-1.147v2.293h-1.147v2.293h-1.147l-2.293 6.872h-1.147v3.44h-1.147v2.293h-1.147l-10.311 33.214-1.147 11.453c-3.174 10.106-4.831 22.987-8.020 33.215q-2.293 14.314-4.587 28.633c-7.791 24.769-9.403 54.136-17.186 79.028v5.727h-1.147v5.792h-1.147v5.733h-1.147v5.722h-1.147v5.727c-2.612 8.296-4.269 19.371-6.874 27.489l-1.147 11.453c-2.721 8.648-4.169 19.978-6.873 28.633l-1.147 11.453c-3.876 12.327-5.315 27.75-9.166 40.087l-11.457 64.138c-4.507 14.427-5.943 32.507-10.311 46.96l-3.44 20.615-11.333 24.053-4.587 3.44v2.293l-4.587 3.44v1.147h-2.293l-3.44 4.587h-2.293l-1.147 2.293-4.587 1.147v1.147l-6.873 2.293v1.147h-3.44v1.147h-2.293v1.147h-3.44v1.147l-9.166 1.147v1.147h-6.845v1.147h-8.020v1.147l-41.243 2.293v1.147l-6.874 1.147v1.147h-2.293v1.147h-3.44l-1.147 2.293-4.587 1.147-1.147 2.293h-2.293l-6.861 7.965-4.587 3.44v2.293l-2.293 1.147v2.293l-2.293 1.147v2.293h-1.147l-1.147 4.587h-1.147l-1.147 6.872c-2.053 5.264-3.243 11.359-3.243 17.731 0 5.113 0.766 10.047 2.19 14.694l-0.094-0.355v4.587l9.179 18.299 3.44 2.293v2.293l2.293 1.147 3.44 4.587h2.293l2.293 3.44h2.293l1.147 2.293h2.293v1.147h2.293v1.147h2.293v1.147h2.293v1.147h2.293v1.147l8.020 1.147v1.147h6.847v1.147zM710.127 680.467q-0.573-16.608-1.147-33.215h-1.147c-1.77-6.283 0.424-16.193-1.147-21.761v-12.596l-1.147-28.634h-1.147l-1.147-34.36h-1.147v-14.89h-1.147v-13.743h-1.147v-10.309h-1.147v-8.017h-1.147l-1.147-6.872-4.587-3.44v-1.147l-4.587-1.147v-1.147l-6.873-2.293v-1.147l-6.88-1.147c-23.528-9.156-60.348-10.723-84.779-1.147h-3.44c-6.675 2.637-21.077 8.074-22.913 14.889-2.981 3.391-0.785 8.508-2.293 13.744h-1.147v10.309h-1.147v12.61h-1.147v13.744h-1.147v14.89h-1.147v16.034h-1.147v17.18h-1.147q-0.573 12.024-1.147 24.052v12.599h-1.147v20.616h-1.147l-1.147 26.343h-74.424c-9.216 0-21.413-0.968-27.495 2.293l-1.147 2.293h-2.293l-2.293 3.44h-1.147c-3.44 4.842-6.966 17.136-3.44 25.198h1.147l1.147 4.581 2.293 1.147v2.293l3.44 2.293v2.293h1.147l1.147 3.44 2.293 1.147v2.293l3.44 2.293v2.293l3.44 2.293v2.293l3.44 2.293v2.293l3.44 2.293v2.293l3.44 2.293v2.293l2.293 1.147 1.147 3.44 4.587 3.44v2.293l4.587 3.44v2.293l4.587 3.44v2.293l5.733 4.587v2.293l5.733 4.587v2.293l5.733 4.587v2.293l6.88 5.727v2.293l6.873 5.727v2.293l9.166 8.017v2.293l4.587 3.44 3.44 4.587h1.147v2.293l11.457 10.308v2.293l13.681 12.471v1.147l2.293 1.147v2.293l22.913 21.761 3.44 4.587h1.147v2.293l10.308 9.153 9.166 10.308h2.293l8.020 9.162h2.293v1.147c4.144 1.869 12.473 1.17 18.33 1.147 1.799-2.073 2.283-0.98 4.587-2.293v-1.147h2.293l9.166-10.308 22.913-21.761c6.915-6.913 13.661-13.723 19.475-21.762l18.331-17.18v-2.293l9.164-8.018 2.293-3.44h1.147v-2.293l10.31-9.162v-2.293l9.166-8.017v-2.293h1.147l3.44-4.587 3.44-2.293v-2.293l6.873-5.727v-2.293l5.733-4.587v-2.293l5.733-4.587v-2.293l5.733-4.587v-2.293l4.587-3.44v-2.293l4.587-3.44v-2.293l3.44-2.293v-2.293l4.587-3.44v-2.293l3.44-2.293v-2.293l3.44-2.293v-2.293l3.44-2.293v-2.293l3.44-2.293v-2.293l2.293-1.147v-2.293l3.44-2.293v-2.293l2.293-1.147v-2.293l2.293-1.147v-2.293l2.293-1.147v-2.293h1.147l1.147-4.587h1.147v-14.889c-2.071-1.801-0.98-2.283-2.293-4.587h-1.147v-2.293h-1.147l-3.44-4.581h-2.293v-1.147c-1.416-1.099-2.219-0.827-3.44-2.293-31.551-1.312-67.531-0.978-100.883-1.008zM503.91-34.221h-2.293c-3.222-5.592-8.459-7.912-13.748-11.453l-1.147-2.293-4.587-1.147-1.147-2.293-4.587-1.147v-1.147l-4.587-1.147v-1.147h-3.44c-20.173-8.808-47.658-11.023-69.885-2.293l-6.873 1.147c-27.021 11.858-46.738 32.337-58.429 59.557l-2.293 11.453c-5.747 17.699-3.899 42.921 2.293 58.413v3.44h1.147v2.293h1.147v3.44h1.147l1.147 4.587h1.147v2.293l2.293 1.147q0.573 2.293 1.147 4.587l2.293 1.147v2.293l2.293 1.147v2.293l4.587 3.44v2.293l9.166 8.018 2.293 3.44c11.204 8.262 24.081 15.227 37.882 20.274l1.070 0.342h4.587c16.96 5.497 40.118 3.555 54.991-2.293h3.44v-1.147h3.44v-1.147h2.293v-1.147l10.311-3.44 1.147-2.293 4.587-1.147 1.147-2.293h2.293l2.293-3.44h2.293l11.457-12.599 5.733-4.587v-2.293l2.293-1.147q0.573-1.72 1.147-3.44h1.147v-2.293l2.293-1.147 1.147-4.587 2.293-1.147v-2.293h1.147v-3.44h1.147l1.147-4.587h1.147v-3.44h1.147v-3.44h1.147v-4.587h1.147v-4.587h1.147v-5.727h1.147v-19.422c0-20.033-4.945-33.635-12.602-45.814l-2.293-6.872-2.293-1.147v-2.293l-3.44-2.293v-2.293h-1.147c-2.502-2.929-5.752-5.012-6.913-9.156zM790.324 142.16c39.736 0.499 69.63-13.968 85.924-36.651l4.587-3.44v-2.293l3.44-2.293v-2.293l2.293-1.147 2.293-6.872h1.147v-2.293h1.147l2.293-6.872h1.147v-3.44c8.020-20.128 9.483-46.399 1.147-67.575l-1.147-6.872h-1.147l-1.147-4.587h-1.147v-2.293h-1.147v-2.293h-1.147v-2.293h-1.147v-2.293h-1.147v-2.293l-2.293-1.147v-2.293l-2.293-1.147v-2.293l-4.587-3.44v-2.293l-8.020-6.872-3.44-4.587h-2.293l-2.293-3.44h-2.293l-2.293-3.44h-2.293l-1.147-2.293h-2.293v-1.147h-2.293v-1.147h-2.293v-1.147h-2.293v-1.147h-2.293v-1.147l-4.587-1.147v-1.147h-3.44v-1.147h-3.44v-1.147h-3.44v-1.147h-4.587v-1.147l-14.857-1.057v-1.147h-18.325v1.147h-9.166v1.147h-5.733v1.147h-3.44v1.147l-8.019 1.147v1.147h-2.293v1.147h-3.44v1.147l-6.873 2.293v1.147l-4.587 1.147-1.147 2.293h-2.293v1.147l-3.44 1.147-1.147 2.293h-2.293l-4.587 5.727h-2.293l-4.587 5.727-2.293 1.147v2.293l-4.587 3.44v2.293l-3.44 2.293v2.293l-2.293 1.147v2.293l-2.293 1.147-1.147 4.587h-1.147l-2.293 6.872h-1.147v3.44h-1.147v3.44h-1.147v2.293h-1.147l-1.147 9.163h-1.147q-0.573 8.015-1.147 16.034h-1.147v13.681h1.147v10.308l6.88 24.052h1.147l1.147 4.587h1.147l1.147 4.587 2.293 1.147 1.147 4.587 2.293 1.147v2.293l3.44 2.293v2.293l5.733 4.587v2.293l4.587 3.44v1.147h2.293l4.587 5.727h2.293l2.293 3.44h2.293l1.147 2.293 4.587 1.147 1.147 2.293 4.587 1.147v1.147l4.587 1.147v1.147l24.059 6.872h9.166v1.147z" />
<glyph unicode="&#xe920;" glyph-name="flash-a" d="M512 960c-282.768 0-512-229.232-512-512s229.232-512 512-512 512 229.232 512 512-229.232 512-512 512zM512-32c-265.088 0-480 214.912-480 480s214.912 480 480 480c265.088 0 480-214.912 480-480s-214.912-480-480-480zM624 496h-97.776c1.536 0 45.84 165.024 49.28 192.208 0 23.248-16.368 31.232-27.424 31.792-10.64 0.544-24.48-5.344-30.416-14.256l-116.8-172.944c-21.92-34.56-48.864-67.136-48.864-85.296 0-31.28 17.456-48 48-48h80c7.424 0 14.608 0.256 14.608 0.256s-46.096-151.728-46.096-189.936c0-29.68 16.256-33.232 27.28-33.792 10.64-0.544 21.632 5.344 27.552 14.272l107.68 161.968c27.232 34.224 60.976 84.064 60.976 95.728 0 26.512-21.488 48-48 48zM593.392 371.424l-95.92-147.2c-4.848-7.312-7.008-14.72-15.712-14.72-8.736 0-12.24 2.496-12.24 14.224l58.128 175.744c0 0 0.336 7.184 0.336 16.032 0 13.168-9.28 16-19.424 16h-108.56c-8.848 0-16 9.664-16 18.496s39.744 60.512 45.104 68.576l94.432 153.216c4.848 7.312 7.008 14.704 15.696 14.704 8.736 0 11.728-2.496 11.728-14.208l-55.104-175.552c0 0-0.144 4.048-0.144-17.024 0-14.928 10.256-15.968 17.696-15.712h110.592c8.848 0 16-7.152 16-16s-41.248-68.512-46.608-76.576z" />
<glyph unicode="&#xe921;" glyph-name="alis" d="M1018.329 540.908c-164.746-348.908-218.348-348.908-250.329-348.908h-315.077c-110.356 0-194.914 64.906-215.434 165.415-0.63 3.072-63.015 309.287-78.966 394.831-7.838 41.945-27.766 69.908-99.446 69.908-32.65 0-59.077 26.427-59.077 59.077s26.427 59.077 59.077 59.077c118.942 0 195.505-59.077 215.591-166.361 15.793-84.638 77.982-389.829 78.612-392.94 12.564-61.676 67.82-70.892 99.643-70.892h299.52c32.177 34.58 105.511 167.818 159.035 281.246 13.942 29.499 49.191 42.063 78.651 28.199 29.538-13.903 42.142-49.113 28.199-78.651zM413.538 152.615c-54.39 0-98.462-44.071-98.462-98.462s44.071-98.462 98.462-98.462 98.462 44.071 98.462 98.462-44.071 98.462-98.462 98.462zM768 152.615c-54.39 0-98.462-44.071-98.462-98.462s44.071-98.462 98.462-98.462 98.462 44.071 98.462 98.462-44.071 98.462-98.462 98.462zM577.497 473.836c3.938-3.19 8.783-4.726 13.627-4.726s9.61 1.536 13.627 4.726c3.938 3.111 111.38 107.914 169.984 195.111 4.529 6.774 4.962 15.439 1.103 22.607-3.742 7.129-11.225 11.618-19.298 11.618h-87.67c0 0-8.546 168.999-14.139 176.837-8.113 11.579-41.63 19.456-63.646 19.456-22.095 0-56.202-7.877-64.354-19.456-5.553-7.798-12.918-176.837-12.918-176.837h-88.812c-8.113 0-15.557-4.49-19.377-11.618-3.82-7.168-3.387-15.872 1.103-22.607 58.644-87.237 166.873-192 170.772-195.111z" />
<glyph unicode="&#xe922;" glyph-name="flash-c" d="M1004.008 648.486c-15.622 5.526-32.764-2.646-38.292-18.266l-20.176-56.978c-53.048 185.442-224.39 326.758-433.538 326.758-192.206 0-359.9-121.062-423.938-297.406-5.656-15.572 2.382-32.784 17.956-38.438 15.572-5.656 32.782 2.382 38.436 17.958 55.304 152.28 200.198 257.886 367.546 257.886 182.826 0 336.724-126.448 379.304-296.684l-53.742 63.16c-10.736 12.62-29.67 14.14-42.288 3.406-12.618-10.736-14.144-29.67-3.406-42.29l118.3-139.034c15.116-17.77 43.526-12.066 51.126 9.428l60.976 172.208c5.532 15.618-2.648 32.764-18.264 38.292zM917.984 331.844c-15.576 5.658-32.78-2.382-38.436-17.958-55.304-152.28-200.198-257.886-367.546-257.886-182.826 0-336.724 126.448-379.304 296.684l53.742-63.16c10.738-12.624 29.674-14.142 42.288-3.406 12.618 10.736 14.144 29.67 3.406 42.29l-118.3 139.034c-14.828 17.424-43.37 12.508-51.126-9.428l-60.978-172.208c-5.532-15.62 2.648-32.764 18.266-38.292 15.648-5.536 32.772 2.672 38.292 18.266l20.176 56.978c53.048-185.442 224.39-326.758 433.538-326.758 192.206 0 359.9 121.062 423.938 297.406 5.656 15.572-2.382 32.784-17.956 38.438zM686.98 540.766h-75.586l24.802 100.564c4.666 18.912-9.68 37.186-29.126 37.186h-170.050c-13.8 0-25.822-9.416-29.126-22.816l-60-243.284c-4.666-18.91 9.68-37.184 29.126-37.184h58.29l-27.944-162.668c-2.24-13.034 4.318-25.994 16.146-31.91 11.884-5.946 26.176-3.344 35.216 6.216 5.208 5.508 44.416 53.226 126.426 153.232 55.082 67.168 117.496 143.282 123.732 150.168 17.91 19.138 4.254 50.496-21.906 50.496zM538.76 378.148c-17.682-21.562-36.118-44.044-53.212-64.866l14.924 86.87c3.15 18.328-10.992 35.080-29.566 35.080h-55.588l45.202 183.284h108.254l-24.802-100.564c-4.666-18.91 9.68-37.184 29.126-37.184h49.904c-20.27-24.626-48.096-58.542-84.242-102.62z" />
<glyph unicode="&#xe923;" glyph-name="row" horiz-adv-x="1254" d="M196.942 960h859.993c107.904-1.147 194.934-88.886 194.934-196.953s-87.031-195.806-194.826-196.952l-0.109-0.001h-859.993c-107.904 1.147-194.934 88.886-194.934 196.953s87.031 195.806 194.826 196.952l0.109 0.001zM196.942 329.906h389.789c107.904-1.147 194.934-88.886 194.934-196.953s-87.031-195.806-194.826-196.952l-0.109-0.001h-389.789c-107.904 1.147-194.934 88.886-194.934 196.953s87.031 195.806 194.826 196.952l0.109 0.001z" />
<glyph unicode="&#xe924;" glyph-name="flash-b" d="M705.177 564.516h-153.809v228.698c0 9.328-6.558 17.386-15.693 19.287-9.269 1.867-18.364-2.904-22.077-11.463l-193.54-446.732c-2.636-6.077-2.021-13.096 1.613-18.637s9.825-8.886 16.462-8.886h153.809v-228.693c0-9.328 6.558-17.386 15.693-19.287 1.345-0.268 2.691-0.402 4.001-0.402 7.73 0 14.903 4.557 18.076 11.865l193.54 446.732c2.636 6.077 2.021 13.096-1.613 18.637s-9.83 8.881-16.462 8.881zM531.327 193.095v153.387c0 10.882-8.807 19.694-19.694 19.694h-143.498l143.845 332.038v-153.387c0-10.882 8.807-19.694 19.694-19.694h143.503l-143.85-332.038zM512 960c-282.324 0-512-229.676-512-512s229.676-512 512-512 512 229.676 512 512-229.671 512-512 512zM512-24.617c-260.595 0-472.617 212.022-472.617 472.617s212.022 472.617 472.617 472.617 472.617-212.022 472.617-472.617-212.017-472.617-472.617-472.617z" />
<glyph unicode="&#xe925;" glyph-name="shop-c" d="M0 544c0-59.562 40.876-109.188 96-123.5v-420.5h-64c-17.626 0-32-14.312-32-32s14.376-32 32-32h960c17.75 0 32 14.312 32 32s-14.25 32-32 32h-64v420.5c55.124 14.312 96 63.938 96 123.5v32h-1024v-32zM640 416c70.75 0 128 57.312 128 128 0-59.562 40.876-109.188 96-123.5v-420.5h-480v416c70.75 0 128 57.312 128 128 0-70.688 57.376-128 128-128zM352 420.5v-420.5h-192v420.5c55.126 14.312 96 63.938 96 123.5 0-59.562 40.876-109.188 96-123.5zM896 864h-768l-128-256h1024l-128 256zM270.376 792.874l-64-128c-2.876-5.626-8.5-8.876-14.376-8.876-2.376 0-4.812 0.5-7.126 1.688-7.876 3.938-11.126 13.562-7.126 21.438l64 128c4 7.876 13.562 11.062 21.438 7.188 7.94-3.938 11.064-13.562 7.19-21.438zM398.376 792.874l-64-128c-2.876-5.626-8.5-8.876-14.376-8.876-2.376 0-4.812 0.5-7.126 1.688-7.876 3.938-11.126 13.562-7.126 21.438l64 128c4 7.876 13.626 11.062 21.438 7.188 7.94-3.938 11.064-13.562 7.19-21.438zM528 672c0-8.876-7.124-16-16-16-8.812 0-16 7.126-16 16v128c0 8.876 7.188 16 16 16 8.876 0 16-7.126 16-16v-128zM711.75 658c-2.5-1.376-5.124-2-7.75-2-5.624 0-11.124 3-14 8.312l-70 128c-4.25 7.75-1.376 17.5 6.376 21.688 7.626 4.25 17.5 1.5 21.75-6.312l70-128c4.124-7.75 1.374-17.5-6.376-21.688zM839.124 657.688c-2.248-1.188-4.624-1.688-7.124-1.688-5.876 0-11.5 3.25-14.25 8.876l-64 128c-4 7.876-0.75 17.5 7.124 21.438 7.75 3.938 17.5 0.75 21.5-7.188l64-128c3.876-7.876 0.75-17.502-7.25-21.438zM272 187.124v73.75c-9.376 5.624-16 15.376-16 27.124 0 17.688 14.376 32 32 32 17.75 0 32-14.312 32-32 0-11.75-6.562-21.5-16-27.124v-73.75c9.438-5.626 16-15.376 16-27.126 0-17.688-14.25-32-32-32-17.626 0-32 14.312-32 32 0 11.752 6.626 21.502 16 27.126zM128 928c0 17.688 14.376 32 32 32h704c17.75 0 32-14.312 32-32s-14.25-32-32-32h-704c-17.624 0-32 14.312-32 32zM560.876 244.688l-22.624 22.626 90.5 90.5 22.624-22.626-90.5-90.5zM560.876 154.188l-22.624 22.626 181 181 22.624-22.626-181-181zM719.25 267.312l22.624-22.626-90.5-90.5-22.624 22.626 90.5 90.5z" />
<glyph unicode="&#xe926;" glyph-name="shop-b" d="M727.513 408.141h-139.142c-38.081 0-69.048-30.967-69.048-69.048v-106.71c0-38.081 30.967-69.048 69.048-69.048h139.142c38.081 0 69.048 30.967 69.048 69.048v106.71c0 38.081-30.967 69.048-69.048 69.048zM746.344 232.383c0-10.462-8.579-18.831-18.831-18.831h-139.142c-10.462 0-18.831 8.579-18.831 18.831v106.71c0 10.462 8.579 18.831 18.831 18.831h139.142c10.462 0 18.831-8.579 18.831-18.831v-106.71zM1024 602.102c0 4.394-1.046 8.579-3.348 12.345l-152.324 267.822c-4.394 7.742-12.763 12.763-21.761 12.763h-669.345c-8.997 0-17.367-4.812-21.761-12.763l-152.114-267.822c-2.092-3.766-3.348-7.951-3.348-12.345 0-60.051 36.198-111.523 87.879-134.329v-441.697c0-13.81 11.299-25.108 25.108-25.108h138.723c0.209 0 0.418 0 0.628 0h194.589c0.209 0 0.418 0 0.628 0h463.248c13.81 0 25.108 11.299 25.108 25.108v438.558c0 1.046 0 1.883-0.209 2.72 51.89 22.807 88.298 74.488 88.298 134.748zM191.869 844.606h640.052l119.055-209.445h-877.953l118.846 209.445zM728.768 585.154c-7.951-45.195-47.497-79.51-94.993-79.51s-87.042 34.315-94.993 79.51h189.986zM485.427 585.154c-7.951-45.195-47.497-79.51-94.993-79.51s-87.042 34.315-95.202 79.51h190.195zM51.89 585.154h190.195c-7.951-45.195-47.706-79.51-95.202-79.51-47.497-0.209-87.042 34.315-94.993 79.51zM421.819 51.184h-144.373v270.96c0 19.668 15.902 35.779 35.779 35.779h73.023c19.668 0 35.779-15.902 35.779-35.779v-270.96h-0.209zM885.695 51.184h-413.659v270.96c0 47.287-38.499 85.996-85.996 85.996h-73.023c-47.287 0-85.996-38.499-85.996-85.996v-271.17h-88.925v404.453c2.929-0.209 5.859-0.209 8.788-0.209 50.635 0 95.412 25.736 121.775 64.863 26.364-39.127 71.14-64.863 121.775-64.863s95.202 25.736 121.775 64.863c26.364-39.127 71.14-64.863 121.566-64.863 50.635 0 95.202 25.736 121.566 64.863 26.364-39.127 71.14-64.863 121.775-64.863 2.929 0 5.649 0.209 8.579 0.209v-404.244zM877.116 505.435c-47.497 0-87.042 34.315-94.993 79.51h190.195c-8.16-44.986-47.706-79.51-95.202-79.51z" />
<glyph unicode="&#xe927;" glyph-name="ref-4" d="M893.418 627.882c-9.396 15.020-29.46 18.486-43.448 8.086l-97.354-73.038c-12.188-9.17-15.586-26.046-7.852-39.2 24.696-42.042 37.236-87.042 37.236-133.77 0-148.888-121.114-273.96-270-273.96s-270 125.072-270 273.96c0 138.75 105.176 253.36 240 268.33v-88.33c0-24.868 28.532-38.714 47.988-23.994l240 180c16.012 11.978 15.988 36.028 0 47.988l-240 180c-19.526 14.786-47.988 0.794-47.988-23.994v-90.996c-234.2-15.498-420-210.966-420-449.004 0-248.146 201.856-453.96 450-453.96s450 205.814 450 453.96c0 83.964-23.73 166.23-68.582 237.922z" />
<glyph unicode="&#xe928;" glyph-name="ref-e" d="M814.999 256.003l209.001 223.998h-129.263c-16.423 232.48-210.071 416.001-446.738 416.001-247.437 0-448-200.566-448-448.003 0-247.433 200.563-448 448-448 107.408 0 205.934 37.874 283.094 100.889l-114.187 114.191c-47.468-34.481-105.716-55.077-168.907-55.077-159.063 0-288 128.937-288 288s128.937 288.004 288 288.004c148.232 0 270.189-112.017 286.123-256.001h-126.123l206.999-224.002z" />
<glyph unicode="&#xe929;" glyph-name="ref-7" d="M511.985 48.906c251.196 0 455.561 204.364 455.561 455.563-0.004 251.18-204.368 455.531-455.561 455.531-66.41 0-130.43-13.97-190.282-41.52-0.754-0.348-1.488-0.73-2.196-1.134-226.65-105.642-326.001-375.641-221.454-603.129 6.234-13.564 22.276-19.504 35.834-13.266 13.562 6.23 19.5 22.272 13.266 35.834-44.784 97.448-48.942 206.506-11.702 307.079 37.238 100.576 111.412 180.63 208.862 225.416 0.722 0.33 1.418 0.69 2.094 1.072 52.108 23.63 107.802 35.608 165.578 35.608 221.398 0 401.519-180.108 401.519-401.493 0-221.352-180.044-401.445-401.377-401.519-0.046 0-0.090 0.006-0.136 0.006h-37.072l76.606 65.302c11.356 9.682 12.716 26.736 3.034 38.094-9.682 11.354-26.734 12.712-38.094 3.034l-116.4-99.226c-10.044-8.562-15.802-21.040-15.802-34.24 0.002-13.196 5.764-25.674 15.804-34.232l116.398-99.226c5.088-4.334 11.316-6.458 17.514-6.458 7.638 0 15.234 3.22 20.576 9.492 9.682 11.356 8.322 28.412-3.034 38.094l-76.632 65.326h36.924c0.058-0.002 0.112-0.008 0.172-0.008z" />
<glyph unicode="&#xe92a;" glyph-name="ref-3" d="M537.951 941.242c-198.632 0-369.244-121.788-444.512-295.409l-50.093 20.075c-11.871 4.772-25.434 1.904-34.343-7.24-8.933-9.168-11.495-22.778-6.464-34.508l79.688-186.22c3.314-7.687 9.497-13.798 17.301-16.901 7.781-3.15 16.478-3.056 24.165 0.282l186.22 79.688c11.73 5.007 19.276 16.619 19.134 29.407-0.165 12.764-7.992 24.188-19.84 28.937l-63.139 25.293c50.822 113.138 162.314 192.050 291.86 192.050 177.288 0 321.525-147.434 321.525-328.695s-144.284-328.718-321.525-328.718c-78.724 0-150.749 29.148-206.601 77.431-32.604 28.161-81.145 26.821-111.492-3.785-0.4-0.423-0.776-0.776-1.175-1.199-33.45-33.662-31.029-88.526 4.866-119.508 84.789-73.2 194.565-117.487 314.402-117.487 268 0 486.072 221.245 486.072 493.265 0.047 271.973-218.025 493.242-486.049 493.242z" />
<glyph unicode="&#xe92b;" glyph-name="ref-1" d="M116.505 412.146c-6.254 54.198-1.042 106.52 13.133 154.881 47.111 160.718 194.904 278.911 370.214 280.996v105.061c0 5.837 7.296 8.964 12.090 5.42l216.167-158.842c3.544-2.71 3.544-8.13 0-10.631l-215.958-158.842c-5.003-3.544-12.090-0.417-12.090 5.42v104.852c-115.275-1.876-213.665-72.959-255.981-173.434-16.051-37.939-24.181-79.838-21.888-123.822 3.127-60.452 25.848-116.109 61.702-161.135 19.178-23.972 14.592-58.992-10.214-77.128-23.555-17.302-56.491-12.507-74.626 10.423-44.401 55.449-74.001 122.988-82.548 196.78zM740.615 613.929c36.063-44.818 58.784-100.683 61.702-161.135 2.293-44.192-6.045-86.091-21.888-123.822-42.316-100.475-140.706-171.766-255.981-173.434v104.852c0 5.837-7.296 8.964-12.090 5.42l-216.167-158.842c-3.544-2.71-3.544-8.13 0-10.631l215.958-158.842c5.003-3.544 12.090-0.417 12.090 5.42v105.061c175.31 1.876 323.312 120.069 370.214 280.996 14.175 48.361 19.178 100.683 13.133 154.881-8.338 73.793-37.939 141.332-82.339 196.78-18.344 22.93-51.071 27.724-74.626 10.423-24.598-18.135-29.184-53.156-10.006-77.128z" />
<glyph unicode="&#xe92c;" glyph-name="ref-2" d="M998.002 914.007c-18.22 7.542-33.771 4.441-46.668-9.338l-86.666-86.008c-47.555 44.891-101.886 79.666-162.998 104.333-61.112 24.665-124.337 36.998-189.671 36.998-69.331 0-135.552-13.562-198.663-40.669-63.115-27.109-117.561-63.547-163.336-109.325-45.778-45.783-82.225-100.221-109.335-163.332-27.107-63.115-40.667-129.327-40.667-198.667 0-69.319 13.559-135.547 40.669-198.66 27.116-63.118 63.554-117.561 109.335-163.339 45.776-45.764 100.221-82.209 163.336-109.321 63.111-27.112 129.332-40.674 198.663-40.674 76.439 0 149.125 16.109 218.004 48.335 68.883 32.211 127.55 77.662 176.006 136.332 3.549 4.444 5.216 9.445 4.988 15-0.208 5.553-2.333 10.108-6.33 13.664l-91.318 91.997c-4.906 3.995-10.445 5.992-16.67 5.992-7.11-0.887-12.217-3.563-15.332-8.007-32.445-42.231-72.222-74.888-119.335-98.017-47.104-23.103-97.104-34.649-149.994-34.649-46.215 0-90.328 8.999-132.327 27.002-42.004 17.994-78.342 42.327-109.003 72.995-30.659 30.67-54.992 66.994-72.995 109.003-17.998 42-27 86.101-27 132.327 0 46.222 9.008 90.344 27 132.334 17.996 41.995 42.327 78.333 72.995 108.994 30.67 30.668 66.998 55.001 109.003 73.004 41.99 17.996 86.113 27 132.327 27 89.335 0 166.895-30.446 232.674-91.336l-92.020-91.985c-13.784-13.335-16.884-28.672-9.342-46.002 7.568-17.779 20.679-26.666 39.354-26.666h298.662c11.556 0 21.552 4.219 30 12.665 8.436 8.443 12.656 18.442 12.656 29.998v298.669c-0.005 18.661-8.649 31.772-26.003 39.352z" />
<glyph unicode="&#xe92d;" glyph-name="ref-5" d="M1024 512v256l-70.4-70.4c-83.2 160-249.6 262.4-441.6 262.4-281.6 0-512-230.4-512-512s230.4-512 512-512c153.6 0 294.4 70.4 384 179.2l-96 83.2c-70.4-83.2-172.8-134.4-288-134.4-211.2 0-384 172.8-384 384s172.8 384 384 384c153.6 0 288-96 352-224l-96-96h256z" />
<glyph unicode="&#xe92e;" glyph-name="ref-8" d="M1003.34 589.412c-24.112 84.378-67.064 157.618-130.227 220.78-48.638 48.628-104.624 85.843-167.132 111.231-62.7 25.473-126.878 38.577-193.391 38.577v-62.603c116.811 0 232.132-45.11 317.476-130.8 54.949-55.162 92.533-119.685 113.473-192.841 20.975-73.3 24.027-147.004 7.823-221.342-16.206-74.336-49.187-140.291-99.498-197.862l-87.193 85.511v-212.957l217.432-3.352-87.193 87.192c58.132 65.965 96.696 141.425 115.704 225.825 18.996 84.401 16.695 168.779-7.273 252.642zM79.958 321.673c-20.939 73.145-23.479 147.004-7.273 221.342 16.218 74.349 49.749 140.864 100.057 198.434l87.192-86.642v214.078l-217.43 2.242 86.644-86.082c-58.132-65.955-96.707-141.412-115.704-225.813-19.008-84.401-16.849-168.826 7.262-253.204 23.967-83.875 67.074-157.068 130.239-220.232 48.628-48.629 104.612-85.845 167.122-111.231 62.712-25.471 127.448-38.564 194.524-38.564v61.483c-118.506 0-232.134 45.657-318.049 131.906-54.949 55.174-93.606 118.984-114.582 192.282z" />
<glyph unicode="&#xe92f;" glyph-name="ref-6" d="M512 960c-192 0-358.4-102.4-441.6-262.4l-70.4 70.4v-256h256l-96 96c64 128 198.4 224 352 224 211.2 0 384-172.8 384-384s-172.8-384-384-384c-115.2 0-217.6 51.2-288 134.4l-96-83.2c89.6-108.8 230.4-179.2 384-179.2 281.6 0 512 230.4 512 512s-230.4 512-512 512z" />
<glyph unicode="&#xe930;" glyph-name="ref-10" d="M271.817 780.723c-22.288 27.466-65.636 28.673-92.389-1.628-68.291-77.404-173.578-237.458-124.174-450.542 0 0-13.962-4.061-31.18-9.077-17.218-4.996-8.343-32.573 19.836-61.555l120.621-124.154c28.179-29.003 55.83-20.074 61.737 19.91l24.061 162.324c5.911 40.001-7.778 67.026-30.594 60.385l-41.316-12.020c-29.918 141.776 33.706 252.607 83.167 313.853 25.38 31.469 32.515 75.039 10.231 102.505zM409.508-51.832c31.856-6.533 72.664-12.168 118.61-12.168 98.135 0 219.745 25.891 327.959 123.441 0 0 13.817-13.285 30.813-29.679 17.037-16.377 39.853 1.847 50.941 40.714l47.577 166.422c11.105 38.867-10.392 58.39-48.014 43.604l-152.773-60.001c-37.622-14.786-57.602-36.889-44.63-49.37l23.496-22.618c-106.717-91.218-231.201-91.016-307.485-78.864-39.927 6.369-81.243-9.151-93.963-42.161-12.676-32.99 7.872-71.194 47.469-79.319zM1006.839 530.622c-23.055 98.465-90.212 271.767-283.057 356.892 0 0 6.385 18.389 14.271 41.098 7.869 22.688-18.116 36.065-58.080 29.881l-170.994-26.517c-39.964-6.183-48.674-33.888-19.506-61.865l118.465-113.577c29.168-27.977 57.495-37.235 63.238-20.677l10.392 29.992c123.915-59.342 174.802-170.466 195.462-243.843 10.961-38.921 42.342-69.956 77.657-67.668 35.281 2.267 61.377 36.943 52.152 76.284z" />
<glyph unicode="&#xe931;" glyph-name="ref-9" d="M983.552 647.168c-26.965 62.464-63.488 116.736-109.568 162.816s-100.352 82.603-162.816 109.568-128.853 40.448-199.168 40.448c-47.104 0-92.501-6.144-136.192-18.432s-84.48-29.525-122.368-51.712-72.363-48.811-103.424-79.872-57.685-65.536-79.872-103.424c-22.187-37.891-39.424-78.677-51.712-122.368s-18.432-89.088-18.432-136.192 6.144-92.501 18.432-136.192c12.288-43.687 29.525-84.475 51.712-122.368 22.187-37.888 48.811-72.364 79.872-103.424 31.061-31.061 65.536-57.689 103.424-79.872 37.888-22.187 78.677-39.422 122.368-51.712 43.691-12.288 89.088-18.432 136.192-18.432s92.501 6.144 136.192 18.432c43.689 12.291 84.477 29.525 122.37 51.712 37.888 22.185 72.364 48.811 103.424 79.872 31.061 31.060 57.689 65.536 79.872 103.424 22.187 37.891 39.422 78.679 51.712 122.37 12.286 43.689 18.43 89.086 18.43 136.19 0 70.315-13.483 136.704-40.448 199.168zM794.627 461.312c0-3.413-1.708-6.827-5.123-10.24-4.093-2.731-7.847-3.072-11.261-1.024l-215.042 72.704c-4.775 2.048-7.506 5.461-8.192 10.24s1.026 8.875 5.12 12.288l50.176 35.84 8.192 6.144c-15.022 11.605-31.747 20.821-50.176 27.648s-37.891 10.24-58.368 10.24c-24.576 0-47.616-4.608-69.12-13.824s-40.277-21.845-56.32-37.888-28.672-34.816-37.888-56.32-13.824-44.544-13.824-69.12c0-24.578 4.608-47.447 13.824-68.608 9.216-21.163 21.845-39.765 37.888-55.808s34.816-28.672 56.32-37.888c21.504-9.216 44.544-13.824 69.12-13.824 29.356 0 57.003 6.827 82.944 20.475 25.943 13.653 47.104 32.768 63.488 57.344 2.731 3.413 6.316 5.634 10.752 6.656 4.437 1.026 8.363 0.174 11.776-2.555l74.752-52.224c2.736-2.053 4.78-5.125 6.147-9.221 0.679-4.091 0-7.846-2.051-11.259-28.67-40.96-64.683-73.216-108.027-96.768-43.351-23.552-89.946-35.328-139.781-35.328-40.96 0-79.701 7.851-116.224 23.552s-68.267 37.035-95.232 64c-26.965 26.965-48.299 58.709-64 95.232s-23.552 75.262-23.552 116.224c0 40.96 7.851 79.701 23.552 116.224s37.035 68.267 64 95.232c26.965 26.965 58.709 48.299 95.232 64s75.264 23.552 116.224 23.552 79.36-7.851 115.2-23.552 67.413-36.864 94.72-63.488l4.091 2.048 50.176 36.864c5.461 2.731 9.899 2.731 13.312 0 4.779-2.731 7.168-6.485 7.168-11.264h0.003l0.003-226.304z" />
<glyph unicode="&#xe932;" glyph-name="nex-1" d="M994.019 619.765c-45.9 128.751-139.189 231.923-262.685 290.51-123.492 58.591-262.414 65.578-391.165 19.678s-231.926-139.189-290.513-262.685c-58.584-123.496-65.571-262.414-19.675-391.169 3.863-10.837 15.784-16.481 26.614-12.625 10.837 3.863 16.488 15.777 12.625 26.614-42.165 118.271-35.747 245.884 18.071 359.327s148.593 199.141 266.864 241.302c118.271 42.161 245.887 35.74 359.327-18.075 113.446-53.818 199.141-148.593 241.305-266.864 42.161-118.271 35.743-245.884-18.075-359.327s-148.593-199.141-266.864-241.302c-132.562-47.254-277.982-32.952-398.965 39.239-9.886 5.898-22.664 2.666-28.558-7.213s-2.666-22.664 7.213-28.558c80.557-48.069 171.048-72.559 262.22-72.555 57.879 0 116.043 9.876 172.075 29.849 128.755 45.9 231.923 139.189 290.51 262.685 58.587 123.499 65.575 262.417 19.675 391.169zM741.102 447.932c0 11.5-9.327 20.827-20.827 20.827h-518.705c-11.504 0-20.827-9.327-20.827-20.827s9.324-20.827 20.827-20.827h518.705c11.5 0 20.827 9.327 20.827 20.827zM575.133 230.089c-8.137-8.133-8.137-21.32 0-29.453 4.065-4.065 9.397-6.099 14.725-6.099s10.66 2.034 14.725 6.099l232.572 232.572c8.137 8.133 8.137 21.32 0 29.453l-232.572 232.572c-8.13 8.133-21.324 8.133-29.45 0-8.137-8.133-8.137-21.32 0-29.453l217.843-217.843-217.843-217.847z" />
<glyph unicode="&#xe933;" glyph-name="row-5" horiz-adv-x="1382" d="M0 915.213v-44.787h1382.298v89.575h-1382.298v-44.787zM0 449.018v-44.787h1382.298l-0.407 44.38-0.611 44.177-1381.28 1.018v-44.787zM0-19.213v-44.787l1381.28 1.018 0.611 44.38 0.407 44.177h-1382.298v-44.787z" />
<glyph unicode="&#xe936;" glyph-name="under" d="M912 928h-800c-44.161-0.055-79.945-35.839-80-79.995v-800.005c0.055-44.161 35.839-79.945 79.995-80h800.005c44.161 0.055 79.945 35.839 80 79.995v800.005c-0.055 44.161-35.839 79.945-79.995 80h-0.005zM112 896h800c26.51 0 48-21.49 48-48v0-48h-896v48c0 26.51 21.49 48 48 48v0zM912 0h-800c-26.51 0-48 21.49-48 48v0 720h896v-720c0-26.51-21.49-48-48-48v0zM128 864h32v-32h-32zM192 864h32v-32h-32zM256 864h32v-32h-32zM784 448h-192c-0.001 0-0.003 0-0.004 0-7.175 0-13.248-4.723-15.277-11.231l-0.030-0.113-112-368 30.624-9.312 96.688 317.712 96.688-317.712 30.624 9.312-18.064 59.344h158.544l20.896-68.656 30.624 9.312-112 368c-2.060 6.621-8.132 11.344-15.308 11.344-0.002 0-0.003 0-0.005 0v0zM642.816 320h158.544l19.44-64h-158.56zM791.616 352h-158.56l-19.488 64h158.56zM691.504 160l-19.504 64h158.544l19.488-64zM464 480c8.837 0 16 7.163 16 16v0 64c0 8.837-7.163 16-16 16v0h-41.344l-0.816 1.968 29.232 29.232c2.894 2.895 4.685 6.895 4.685 11.312s-1.79 8.417-4.685 11.312l-45.248 45.248c-2.943 2.787-6.927 4.501-11.312 4.501s-8.369-1.714-11.32-4.509l0.008 0.007-29.232-29.232-1.968 0.816v41.344c0 8.837-7.163 16-16 16v0h-64c-8.837 0-16-7.163-16-16v0-41.344l-1.968-0.816-29.232 29.232c-2.895 2.894-6.895 4.685-11.312 4.685s-8.417-1.79-11.312-4.685l-45.248-45.248c-2.894-2.895-4.685-6.895-4.685-11.312s1.79-8.417 4.685-11.312l29.232-29.232-0.816-1.968h-41.344c-8.837 0-16-7.163-16-16v0-64c0-8.837 7.163-16 16-16v0h41.344l0.816-1.968-29.232-29.232c-2.894-2.895-4.685-6.895-4.685-11.312s1.79-8.417 4.685-11.312l45.248-45.248c2.943-2.787 6.927-4.501 11.312-4.501s8.369 1.714 11.32 4.509l-0.008-0.007 29.232 29.232 1.968-0.816v-41.344c0-8.837 7.163-16 16-16v0h64c8.837 0 16 7.163 16 16v0 41.344l1.968 0.816 29.232-29.232c2.895-2.894 6.895-4.685 11.312-4.685s8.417 1.79 11.312 4.685l45.248 45.248c2.894 2.895 4.685 6.895 4.685 11.312s-1.79 8.417-4.685 11.312l-29.232 29.232 0.816 1.968zM391.216 463.408l25.92-25.92-22.624-22.624-25.92 25.92c-2.895 2.893-6.893 4.682-11.31 4.682-2.792 0-5.417-0.715-7.701-1.972l0.083 0.042c-5.19-2.861-11.23-5.411-17.546-7.327l-0.678-0.177c-6.667-2.028-11.436-8.121-11.44-15.328v0-36.704h-32v36.704c-0.004 7.207-4.773 13.3-11.327 15.298l-0.113 0.030c-6.994 2.093-13.034 4.643-18.724 7.754l0.5-0.25c-2.202 1.215-4.827 1.93-7.618 1.93-4.416 0-8.415-1.789-11.31-4.682l-25.92-25.92-22.624 22.624 25.92 25.92c2.893 2.895 4.682 6.893 4.682 11.31 0 2.792-0.715 5.417-1.972 7.701l0.042-0.083c-2.861 5.19-5.411 11.23-7.327 17.546l-0.177 0.678c-2.028 6.667-8.121 11.436-15.328 11.44h-36.704v32h36.704c7.207 0.004 13.3 4.773 15.298 11.327l0.030 0.113c2.093 6.994 4.643 13.034 7.754 18.724l-0.25-0.5c1.215 2.202 1.93 4.827 1.93 7.618 0 4.416-1.789 8.415-4.682 11.31l-25.92 25.92 22.624 22.624 25.92-25.92c2.895-2.893 6.893-4.682 11.31-4.682 2.792 0 5.417 0.715 7.701 1.972l-0.083-0.042c5.19 2.861 11.23 5.411 17.546 7.327l0.678 0.177c6.667 2.028 11.436 8.121 11.44 15.328v0 36.704h32v-36.704c0.004-7.207 4.773-13.3 11.327-15.298l0.113-0.030c6.994-2.093 13.034-4.643 18.724-7.754l-0.5 0.25c2.202-1.215 4.827-1.93 7.618-1.93 4.416 0 8.415 1.789 11.31 4.682l25.92 25.92 22.624-22.624-25.92-25.92c-2.893-2.895-4.682-6.893-4.682-11.31 0-2.792 0.715-5.417 1.972-7.701l-0.042 0.083c2.861-5.19 5.411-11.23 7.327-17.546l0.177-0.678c2.028-6.667 8.121-11.436 15.328-11.44h36.704v-32h-36.704c-7.207-0.004-13.3-4.773-15.298-11.327l-0.030-0.113c-2.093-6.994-4.643-13.034-7.754-18.724l0.25 0.5c-1.215-2.202-1.93-4.827-1.93-7.618 0-4.416 1.789-8.415 4.682-11.31v0zM304 592c-35.346 0-64-28.654-64-64s28.654-64 64-64c35.346 0 64 28.654 64 64v0c0 35.346-28.654 64-64 64v0zM304 496c-17.673 0-32 14.327-32 32s14.327 32 32 32c17.673 0 32-14.327 32-32v0c0-17.673-14.327-32-32-32v0zM512 704h64v-32h-64zM608 704h224v-32h-224zM512 640h160v-32h-160zM704 640h128v-32h-128zM512 576h96v-32h-96zM640 576h64v-32h-64zM736 576h96v-32h-96zM128 320h32v-32h-32zM192 320h32v-32h-32zM256 320h32v-32h-32zM320 320h32v-32h-32zM128 256h128v-32h-128zM288 256h32v-32h-32zM128 192h192v-32h-192zM352 192h32v-32h-32z" />
<glyph unicode="&#xe93b;" glyph-name="screen" d="M512 960c-9.042 0-17.126-5.73-20.126-14.27-3-8.542-0.292-18.062 6.792-23.73l106.666-85.334c9.25-7.354 22.626-5.896 30 3.334 7.332 9.208 5.876 22.626-3.334 30l-53.292 42.604c227.336-32.5 402.628-228.458 402.628-464.604 0-11.792 9.542-21.334 21.334-21.334s21.334 9.542 21.334 21.334c-0.002 282.312-229.668 512-512.002 512zM525.332-26l-106.666 85.334c-9.208 7.292-22.624 5.876-30-3.334-7.334-9.208-5.876-22.626 3.332-30l53.292-42.604c-227.332 32.5-402.624 228.458-402.624 464.604 0 11.792-9.542 21.334-21.334 21.334-11.79 0-21.332-9.542-21.332-21.334 0-282.312 229.666-512 512-512 9.042 0 17.126 5.73 20.126 14.27 3 8.542 0.29 18.064-6.794 23.73zM429.292 898.562c-24.166 24.208-66.458 24.188-90.542 0.020l-277.334-277.332c-12.084-12.084-18.75-28.166-18.75-45.25s6.666-33.166 18.75-45.25l533.292-533.312c12.084-12.104 28.166-18.77 45.292-18.77s33.208 6.666 45.25 18.75l277.334 277.334c12.084 12.084 18.75 28.166 18.75 45.25s-6.666 33.166-18.75 45.25l-533.292 533.31zM91.584 560.916c-4.042 4.042-6.25 9.396-6.25 15.084s2.208 11.042 6.25 15.084l277.374 277.354c4 4.020 9.334 6.23 15.042 6.23s11.042-2.208 15.084-6.25l464.928-464.928-307.5-307.5-464.928 464.926zM932.416 304.916l-277.374-277.354c-8-8.042-22.042-8.062-30.126 0.020l-38.24 38.24 307.5 307.5 38.24-38.24c4.042-4.042 6.25-9.396 6.25-15.084s-2.208-11.040-6.25-15.082zM774.25 228.416l-42.666-42.666c-8.334-8.334-8.334-21.834 0-30.166 4.166-4.166 9.626-6.25 15.084-6.25s10.916 2.084 15.084 6.25l42.666 42.666c8.334 8.334 8.334 21.834 0 30.166-8.334 8.334-21.834 8.334-30.168 0zM262.25 740.416l-42.666-42.666c-8.334-8.334-8.334-21.834 0-30.166 4.166-4.166 9.626-6.25 15.084-6.25s10.916 2.084 15.084 6.25l42.666 42.666c8.334 8.334 8.334 21.834 0 30.166-8.334 8.334-21.834 8.334-30.168 0zM405.334 832c0-11.782-9.552-21.334-21.334-21.334s-21.334 9.552-21.334 21.334c0 11.782 9.552 21.334 21.334 21.334s21.334-9.552 21.334-21.334z" />
<glyph unicode="&#xe93c;" glyph-name="row-1" d="M0 819.2h1024v-102.4h-1024v102.4zM0 512h1024v-102.4h-1024v102.4zM0 204.8h1024v-102.4h-1024v102.4z" />
<glyph unicode="&#xe93d;" glyph-name="row-2" d="M128 384h768c23.552 0 42.667 19.115 42.667 42.667s-19.115 42.667-42.667 42.667h-768c-23.552 0-42.667-19.115-42.667-42.667s19.115-42.667 42.667-42.667zM128 640h768c23.552 0 42.667 19.115 42.667 42.667s-19.115 42.667-42.667 42.667h-768c-23.552 0-42.667-19.115-42.667-42.667s19.115-42.667 42.667-42.667zM128 128h768c23.552 0 42.667 19.115 42.667 42.667s-19.115 42.667-42.667 42.667h-768c-23.552 0-42.667-19.115-42.667-42.667s19.115-42.667 42.667-42.667z" />
<glyph unicode="&#xe93e;" glyph-name="row-3" d="M128 682.667h768v-86h-768v86zM128 384.667v84h768v-84h-768zM128 170.667v86h768v-86h-768z" />
<glyph unicode="&#xe93f;" glyph-name="row-4" d="M810.667 213.334h-597.333c-47.061 0-85.333-38.272-85.333-85.333s38.272-85.333 85.333-85.333h597.333c47.061 0 85.333 38.272 85.333 85.333s-38.272 85.333-85.333 85.333zM810.667 512h-597.333c-47.061 0-85.333-38.272-85.333-85.333s38.272-85.333 85.333-85.333h597.333c47.061 0 85.333 38.272 85.333 85.333s-38.272 85.333-85.333 85.333zM810.667 810.667h-597.333c-47.061 0-85.333-38.272-85.333-85.333s38.272-85.333 85.333-85.333h597.333c47.061 0 85.333 38.272 85.333 85.333s-38.272 85.333-85.333 85.333z" />
</font>
</defs>
</svg>
