<?xml version="1.0" standalone="no"?>
<!DOCTYPE svg PUBLIC "-//W3C//DTD SVG 1.1//EN" "http://www.w3.org/Graphics/SVG/1.1/DTD/svg11.dtd" >
<svg xmlns="http://www.w3.org/2000/svg">
<metadata>Generated by IcoMoon</metadata>
<defs>
<font id="icomoon" horiz-adv-x="1024">
<font-face units-per-em="1024" ascent="960" descent="-64" />
<missing-glyph horiz-adv-x="1024" />
<glyph unicode="&#x20;" horiz-adv-x="512" d="" />
<glyph unicode="&#x2713;" glyph-name="g-ok" horiz-adv-x="745" d="M340.364 294.182l-221.091 281.455 45.818 36 169.455-216.364 245.818 393.818 49.455-30.545z" />
<glyph unicode="&#x2714;" glyph-name="s-ok" horiz-adv-x="745" d="M740.418 700.552l-449.939-449.939q-6.034-4.31-11.205-4.31t-11.205 4.31l-263.758 263.758q-11.205 11.205 0 22.411l108.606 108.606q11.205 11.205 22.411 0l143.946-144.808 330.128 330.99q11.205 11.205 22.411 0l108.606-108.606q11.205-11.205 0-22.411z" />
<glyph unicode="&#x2715;" glyph-name="p-ok" horiz-adv-x="745" d="M709.818 774.594q9.309-7.758 10.085-20.558t-6.982-23.661q-294.012-419.685-318.061-453.042-24.824-33.358-64-33.745t-64.776 33.745l-215.661 303.321q-7.758 10.861-6.982 24.048t10.085 20.945q39.564 34.133 88.436 61.285 10.085 5.43 22.497 1.552t20.17-14.739l145.842-204.8 249.018 353.745q7.758 10.861 19.782 14.352t22.885-1.939q51.2-27.927 87.661-60.509z" />
<glyph unicode="&#xe5e1;" glyph-name="pkargo" horiz-adv-x="745" d="M223.418 419.297q-51.976 0-90.764-37.624t-38.788-88.824h-6.982q-15.515 0-26.376 10.861t-10.861 26.376v193.939l186.182 14.739q12.412 1.552 24.048 10.473t15.515 20.558v0.776q1.552 3.879 1.552 10.085l-226.521 20.17q-25.6 3.879-25.6 29.479 0 10.861 6.982 18.23t17.067 8.145v0.776l200.921 14.739q12.412 1.552 24.824 9.697t17.842 19.006q3.879 7.758 1.552 16.291l-268.412 24.048q-12.412 0.776-19.006 10.473t-6.594 18.23q0 10.861 6.982 18.23t17.067 8.145l25.6 2.327v27.927q0 15.515 10.861 26.376t26.376 10.861h422.012q15.515 0 26.376-10.861t10.861-26.376v-86.885h86.885q15.515 0 26.376-10.861t10.861-26.376v-136.533l59.733-51.2q14.739-10.861 14.739-29.479v-155.152q0-15.515-10.861-26.376t-26.376-10.861h-7.758q0 51.2-38.788 88.824t-89.988 37.624q-51.976 0-90.764-37.624t-38.788-88.824h-89.212q0 51.2-38.788 88.824t-89.988 37.624zM570.958 367.321q31.030 0 52.752-21.721t21.721-52.752-21.721-52.752-52.752-21.721-52.752 21.721-21.721 52.752 21.721 52.752 52.752 21.721zM223.418 367.321q31.030 0 52.752-21.721t21.721-52.752-21.721-52.752-52.752-21.721-52.752 21.721-21.721 52.752 21.721 52.752 52.752 21.721z" />
<glyph unicode="&#xe900;" glyph-name="star" d="M661.837 615.603c-26.931 59.29-105.28 222.797-149.798 222.797-44.544 0-122.88-163.494-149.798-222.771-64.832-7.437-244.89-31.718-258.47-73.395-13.555-41.715 117.837-167.040 165.901-211.072-12.966-63.859-45.504-242.406-9.984-268.16 5.018-3.622 11.571-5.389 20.096-5.389 54.566 0 201.472 80.55 232.23 97.741 30.72-17.19 177.626-97.754 232.218-97.754 8.525 0 15.091 1.792 20.096 5.402 35.507 25.818 2.957 204.314-10.022 268.16 48.090 44.045 179.546 169.421 165.965 211.085-13.53 41.626-193.587 65.933-258.432 73.357zM734.874 343.181c-2.867-2.624-4.16-6.566-3.366-10.368 23.155-111.872 36.685-239.834 19.891-252.045-0.064-0.038-1.715-1.203-7.168-1.203-44.813 0-178.88 70.707-226.765 97.958-1.677 0.973-3.571 1.434-5.44 1.434s-3.75-0.461-5.427-1.434c-47.91-27.251-181.965-97.946-226.778-97.946-4.365 0-6.566 0.742-7.155 1.178-15.219 11.034-6.131 126.477 19.84 252.070 0.794 3.814-0.499 7.744-3.366 10.355-84.57 76.902-170.803 172.506-164.416 192.243 6.4 19.699 132.493 46.438 246.195 59.034 3.904 0.435 7.245 2.893 8.832 6.413 46.797 104.102 111.117 215.539 132.301 215.539 21.158 0 85.478-111.437 132.301-215.552 1.587-3.546 4.941-5.99 8.832-6.413 113.702-12.608 239.757-39.322 246.17-59.034 5.824-17.83-69.504-105.856-164.48-192.23z" />
<glyph unicode="&#xe901;" glyph-name="arac" d="M906.97 267.2h-81.216l-1.549-7.27c-10.701-50.496-55.731-87.13-107.11-87.13s-96.41 36.634-107.085 87.13l-1.549 7.27h-193.152l-1.549-7.27c-10.65-50.496-55.706-87.13-107.085-87.13s-96.435 36.634-107.11 87.13l-1.536 7.27h-81.203c-8.051 0-14.579 6.592-14.579 14.656v426.662c0 8.090 6.528 14.682 14.579 14.682h487.155c8.026 0 14.554-6.592 14.605-14.63l0.051-59.379 167.194-0.051c5.824 0 11.046-3.469 13.35-8.845l58.253-117.286 56.627-32.23c4.608-2.598 7.45-7.526 7.45-12.8v-196.122c0-8.064-6.502-14.656-14.541-14.656zM717.094 202.176c44.301 0 80.358 36.211 80.358 80.768 0 44.582-36.058 80.819-80.358 80.819s-80.358-36.237-80.358-80.819c0-44.557 36.058-80.768 80.358-80.768zM306.675 202.176c44.301 0 80.358 36.211 80.358 80.768 0 44.582-36.045 80.819-80.358 80.819-44.326 0-80.384-36.237-80.384-80.819 0-44.557 36.058-80.768 80.384-80.768zM892.39 469.478l-57.037 32.435-58.56 117.939h-158.208v-147.008c0-8.102-6.554-14.682-14.605-14.682-8 0-14.554 6.579-14.554 14.682v221.030h-458.035v-397.312h66.342l1.446 7.45c9.907 51.597 55.117 89.088 107.494 89.088 52.352 0 97.587-37.44 107.482-89.088l1.434-7.45h192.589l1.434 7.45c9.92 51.648 55.13 89.088 107.482 89.088s97.562-37.491 107.507-89.088l1.459-7.45h66.33v172.915zM306.675 297.651c8.026 0 14.579-6.618 14.579-14.707 0-8.077-6.554-14.643-14.579-14.643s-14.579 6.566-14.579 14.643c0 8.090 6.554 14.707 14.579 14.707zM717.094 297.651c8.051 0 14.579-6.618 14.579-14.707 0-8.077-6.528-14.643-14.579-14.643s-14.554 6.566-14.554 14.643c0 8.090 6.502 14.707 14.554 14.707z" />
<glyph unicode="&#xe902;" glyph-name="back" d="M278.579 493.235c128.371 116.467 256.704 232.934 385.075 349.35 52.851 47.91 131.635-29.952 78.579-78.054-114.227-103.629-228.454-207.206-342.694-310.886 114.816-107.187 229.594-214.515 344.41-321.805 52.301-48.819-26.483-126.72-78.618-78.003-128.922 120.461-257.843 240.909-386.752 361.357-21.338 20.006-21.888 58.266 0 78.042z" />
<glyph unicode="&#xe903;" glyph-name="bar-bites" d="M613.35 560.614c-10.406 0-10.406 16.742 0 16.742 10.394 0 10.394-16.742 0-16.742zM592.947 519.117l-0.166-0.205c-0.371-1.51-0.806-4.288-0.806-8.806 0-1.126 0.026-2.048 0.064-2.803 4.045-2.586 7.718-8.563 7.718-21.696 0-15.309-3.853-21.85-6.157-24.384l-0.077-0.090c-0.371-1.523-0.806-4.301-0.806-8.819 0-1.306 0.038-2.368 0.102-3.174 3.802-2.778 7.155-8.794 7.155-21.325 0-15.309-3.866-21.85-6.17-24.384l-0.077-0.090c-0.358-1.51-0.806-4.288-0.806-8.819 0-1.114 0.026-2.035 0.077-2.79 4.045-2.586 7.718-8.55 7.718-21.696 0-15.309-3.853-21.85-6.144-24.384l-0.090-0.102c-0.371-1.523-0.819-4.288-0.819-8.806 0-1.344 0.051-2.419 0.115-3.238 3.776-2.803 7.078-8.819 7.078-21.261 0-15.309-3.853-21.85-6.157-24.384l-0.077-0.090c-0.371-1.51-0.819-4.301-0.819-8.819 0-1.114 0.038-2.048 0.077-2.803 4.045-2.598 7.718-8.563 7.718-21.696 0-15.309-3.853-21.85-6.157-24.384l-0.077-0.090c-0.371-1.523-0.806-4.301-0.806-8.819 0-1.293 0.998-4.198 1.843-6.080 1.805-2.739 2.739-6.451 1.843-10.739-0.141-2.637-1.088-5.261-2.752-7.411-4.634-6.042-12.89-6.822-19.584-6.822-14.605 0-20.838 4.198-23.258 6.694l-0.026 0.026c-1.37 0.358-3.891 0.806-7.923 0.806-1.178 0-2.125-0.051-2.854-0.102-0.166-0.256-0.346-0.512-0.538-0.755-4.634-6.029-12.89-6.81-19.571-6.81-14.605 0-20.851 4.198-23.27 6.694l-0.026 0.026c-1.37 0.358-3.891 0.794-7.923 0.794-0.96 0-1.766-0.026-2.432-0.064-0.282-0.499-0.602-0.973-0.96-1.434-4.634-6.029-12.89-6.81-19.571-6.81-14.592 0-20.838 4.186-23.258 6.694l-0.563 0.589c-1.178 0.269-3.482 0.525-6.579 0.282-2.675-0.218-5.005-1.28-6.016-1.805-2.893-2.56-4.531-3.686-4.992-3.994l-1.51-0.998-3.008-0.742-1.421-0.038c-5.325 0-14.259 3.059-14.259 23.539 0 15.309 3.853 21.85 6.157 24.384l0.077 0.090c0.371 1.51 0.819 4.301 0.819 8.819 0 1.114-0.038 2.048-0.077 2.803-4.045 2.586-7.718 8.563-7.718 21.696 0 15.309 3.853 21.85 6.157 24.384l0.077 0.090c0.358 1.51 0.806 4.301 0.806 8.819 0 1.344-0.038 2.406-0.102 3.238-3.776 2.79-7.078 8.806-7.078 21.261 0 15.309 3.853 21.85 6.157 24.384l0.077 0.090c0.371 1.51 0.806 4.288 0.806 8.819 0 1.114-0.026 2.035-0.077 2.79-4.032 2.598-7.706 8.563-7.706 21.709 0 15.309 3.853 21.837 6.157 24.384l0.077 0.090c0.358 1.51 0.806 4.288 0.806 8.806 0 1.318-0.038 2.368-0.102 3.187-3.814 2.765-7.155 8.781-7.155 21.312 0 15.309 3.853 21.85 6.157 24.384l0.077 0.090c0.371 1.51 0.819 4.301 0.819 8.819 0 1.114-0.038 2.048-0.077 2.803-4.045 2.586-7.718 8.563-7.718 21.696 0 15.309 3.853 21.85 6.157 24.384l0.077 0.090c0.371 1.51 0.819 4.288 0.819 8.819 0 1.331-0.051 2.406-0.115 3.226-3.776 2.803-7.078 8.819-7.078 21.261 0 15.309 3.853 21.85 6.144 24.384l0.090 0.102c0.371 1.51 0.819 4.288 0.819 8.806 0 1.126-0.038 2.048-0.090 2.803-4.032 2.598-7.706 8.563-7.706 21.709 0 15.309 3.853 21.837 6.157 24.371l0.077 0.090c0.358 1.523 0.806 4.301 0.806 8.819 0 1.293-0.998 4.198-1.843 6.093-1.818 2.726-2.752 6.438-1.843 10.752 0.141 2.624 1.088 5.248 2.752 7.398 4.634 6.042 12.89 6.822 19.584 6.822 14.605 0 20.838-4.198 23.258-6.694l0.026-0.026c1.382-0.358 3.891-0.806 7.923-0.806 1.19 0 2.138 0.038 2.88 0.102 1.549 2.33 3.955 4.378 7.36 5.709l5.082 1.958c-2.458 3.418-2.867 8.166-2.893 12.275-0.051 4.314 4.275 8.051 8.41 6.643 3.328-1.152 6.656-2.304 9.971-3.456 0.563-0.179 1.088-0.448 1.562-0.781 1.715-1.050 2.893-2.778 3.226-4.762 0.077-0.346 0.102-0.678 0.102-1.037v-0.090c0-0.32-0.051-0.602-0.051-0.922l1.587 0.614-1.779-3.43c-0.218-2.65-0.64-5.222-1.766-7.795-0.678-1.523-2.227-2.611-3.853-3.11l-6.208-12.032c-0.371-0.73-0.704-1.51-0.986-2.304-0.717-1.958-1.037-3.853-1.037-5.837 0-6.579 3.52-12.442 9.19-15.309l10.816-5.466-6.336-10.637c-4.019-6.746-6.144-14.515-6.144-22.451 0-23.475 18.381-42.573 40.986-42.573 5.184 0 10.15 0.96 14.746 2.88l10.227 4.262 3.955-10.675c3.622-9.741 12.813-16.282 22.886-16.282 1.114 0 2.189 0.166 3.277 0.32l19.021 2.586-7.642-18.278c-1.075-2.573-2.227-4.173-3.021-5.056zM579.776 257.395c-2.112 1.382-3.891 3.469-5.133 6.106-1.754 3.699-2.573 8.602-2.573 15.437 0 15.309 3.853 21.85 6.144 24.384l0.090 0.090c0.371 1.523 0.806 4.301 0.806 8.819 0 1.434-0.038 2.547-0.115 3.405-1.83 1.37-3.379 3.29-4.493 5.658-1.754 3.686-2.573 8.602-2.573 15.437 0 15.296 3.853 21.837 6.144 24.371l0.090 0.102c0.371 1.523 0.819 4.314 0.819 8.819 0 1.19-0.038 2.163-0.090 2.944-2.112 1.395-3.891 3.469-5.133 6.106-1.754 3.699-2.573 8.602-2.573 15.45 0 15.296 3.853 21.837 6.144 24.371l0.090 0.102c0.358 1.51 0.806 4.288 0.806 8.819 0 1.395-0.051 2.496-0.115 3.341-1.856 1.382-3.443 3.315-4.57 5.709-1.754 3.699-2.573 8.602-2.573 15.45 0 15.296 3.853 21.837 6.157 24.371l0.077 0.102c0.371 1.51 0.819 4.288 0.819 8.806 0 1.203-0.038 2.163-0.090 2.944-2.112 1.395-3.891 3.482-5.133 6.118-1.754 3.686-2.573 8.589-2.573 15.437 0 3.059 0.154 5.773 0.422 8.179-11.29 2.816-21.274 9.997-27.763 19.981-4.339-0.986-8.819-1.485-13.389-1.485-34.586 0-62.733 29.222-62.733 65.152 0 8.525 1.6 16.922 4.698 24.742-6.72 6.413-11.008 15.155-12.006 24.794-0.026 0-0.051 0-0.077 0-14.605 0-20.851 4.198-23.27 6.694l-0.013 0.026c-1.165 0.307-3.11 0.666-6.093 0.768 0.73-2.624 1.267-5.555 1.267-8.448 0-15.296-3.853-21.837-6.157-24.371l-0.090-0.090c-0.358-1.523-0.806-4.301-0.806-8.819 0-1.126 0.026-2.048 0.077-2.816 4.045-2.586 7.718-8.563 7.718-21.683 0-15.309-3.853-21.85-6.157-24.384l-0.090-0.090c-0.358-1.523-0.806-4.301-0.806-8.819 0-1.344 0.051-2.406 0.115-3.238 3.776-2.803 7.078-8.819 7.078-21.261 0-15.296-3.853-21.85-6.157-24.384l-0.090-0.090c-0.358-1.523-0.806-4.301-0.806-8.819 0-1.114 0.038-2.048 0.077-2.803 4.045-2.598 7.718-8.563 7.718-21.696 0-15.296-3.853-21.837-6.157-24.371l-0.077-0.102c-0.371-1.51-0.819-4.301-0.819-8.819 0-1.306 0.051-2.355 0.102-3.174 3.814-2.778 7.168-8.794 7.168-21.312 0-15.309-3.853-21.85-6.157-24.384l-0.090-0.090c-0.358-1.523-0.806-4.301-0.806-8.819 0-1.114 0.026-2.048 0.077-2.803 4.045-2.598 7.718-8.563 7.718-21.696 0-15.296-3.853-21.837-6.157-24.371l-0.090-0.102c-0.358-1.523-0.806-4.301-0.806-8.819 0-1.344 0.051-2.419 0.115-3.238 3.776-2.803 7.078-8.819 7.078-21.261 0-15.296-3.853-21.837-6.144-24.371l-0.102-0.102c-0.358-1.523-0.806-4.301-0.806-8.819 0-1.114 0.038-2.048 0.077-2.803 4.045-2.586 7.718-8.563 7.718-21.696 0-15.296-3.853-21.837-6.157-24.384l-0.077-0.090c-0.205-0.832-0.435-2.074-0.602-3.763 2.253 0.691 4.826 1.254 7.629 1.472 1.498 0.128 2.88 0.179 4.186 0.179 11.725 0.013 17.485-4.224 19.93-6.848 1.382-0.358 3.891-0.806 7.91-0.806 0.96 0 1.766 0.038 2.432 0.077 0.282 0.486 0.602 0.973 0.947 1.421 4.646 6.042 12.902 6.822 19.584 6.822 14.592 0 20.838-4.198 23.258-6.694l0.026-0.026c1.382-0.358 3.891-0.806 7.923-0.806 1.178 0 2.125 0.051 2.854 0.102 0.166 0.256 0.346 0.512 0.538 0.755 4.646 6.042 12.902 6.81 19.571 6.81 14.592 0 20.838-4.186 23.258-6.682l0.038-0.038c1.165-0.307 3.11-0.653 6.093-0.768-0.73 2.624-1.267 5.555-1.267 8.448 0 15.296 3.853 21.837 6.144 24.371l0.090 0.102c0.371 1.523 0.819 4.301 0.819 8.819 0 1.19-0.038 2.163-0.090 2.944zM561.114 377.434c-1.357-1.741-4.454-2.547-6.464-1.766-5.184 1.933-9.574 5.363-12.915 9.83-0.051 0.051-0.077 0.077-0.115 0.128-0.282 0.371-0.563 0.755-0.845 1.152-0.026 0.051-0.051 0.077-0.077 0.128 0 0 0 0.013 0 0.013-0.781 1.114-1.050 2.458-0.934 3.75 0 0 0 0 0 0s0 0 0 0.013c0 0 0 0 0 0s0 0 0 0c0 0.179 0.026 0.333 0.026 0.512 0.23 1.498 0.909 2.957 1.907 4.032 0.038 0 0.038 0.026 0.038 0.026l0.026 0.026c0.371 0.32 0.73 0.602 1.101 0.922 1.318 1.101 2.624 2.163 3.93 3.264 2.086 1.728 4.006 2.624 6.733 2.381 2.611-0.23 5.018-0.627 7.386-1.856 3.738-1.933 6.259-6.195 5.824-10.573-0.461-4.71-2.79-8.384-5.619-11.981zM539.789 391.194c0.102 1.549 0.704 3.046 1.907 4.032-0.998-1.075-1.677-2.534-1.907-4.032zM532.851 281.613c-1.357-1.754-4.454-2.56-6.464-1.779-5.197 1.933-9.574 5.363-12.915 9.83-0.064 0.051-0.077 0.077-0.102 0.141-0.307 0.358-0.576 0.755-0.858 1.139-0.026 0.051-0.051 0.077-0.077 0.128-0.794 1.126-1.062 2.458-0.934 3.763 0 0.179 0.026 0.346 0.026 0.525 0.102 1.549 0.704 3.034 1.92 4.032 0.026 0 0.026 0.026 0.026 0.026l0.013 0.026c0.384 0.32 0.742 0.602 1.114 0.922 1.318 1.101 2.624 2.163 3.93 3.264 2.086 1.728 4.006 2.624 6.72 2.381 2.624-0.23 5.030-0.627 7.411-1.856 3.725-1.933 6.234-6.195 5.798-10.573-0.435-4.698-2.778-8.384-5.606-11.968zM514.79 458.803c-4.16-0.179-8.013 2.022-10.931 4.928-0.026 0.026-0.051 0.051-0.077 0.077 0 0.026 0 0.026-0.026 0.026-0.102 0.115-0.115 0.269-0.205 0.397-1.318 1.523-1.843 3.546-1.562 5.517 0.013 0.090-0.026 0.166-0.013 0.256 0 0.038 0 0.051 0.026 0.090 0 0.154 0.026 0.307 0.051 0.461 0.371 1.92 0.755 3.853 1.101 5.76 0.576 2.957 3.622 5.094 6.426 5.069 4.429-0.051 9.869-0.858 13.043-4.467 3.046-3.456 3.776-7.949 1.766-12.173-1.766-3.686-5.773-5.747-9.6-5.939zM481.869 350.362c-5.133-3.213-13.619-5.274-17.114 1.677-1.869 3.686-1.779 7.923-0.768 12.16-0.627 1.024-1.075 2.15-1.152 3.622-0.102 1.971 0.090 4.122 1.28 5.773 1.28 1.766 2.893 2.995 4.902 3.443 0.614 1.229 1.178 2.406 1.715 3.482 1.28 2.637 4.838 4.096 7.514 3.187 1.446-0.486 3.008-0.55 4.442-1.062 2.534-0.87 5.286-3.533 4.89-6.682-0.179-1.357-0.307-2.637-0.704-3.942v-0.038c-0.205-0.435 1.933-4.378 2.957-6.528 3.187-6.592-3.059-12.083-7.962-15.091zM463.539 503.514c-5.133-3.213-13.606-5.274-17.114 1.677-1.869 3.686-1.766 7.923-0.755 12.16-0.627 1.024-1.088 2.15-1.165 3.622-0.102 1.971 0.102 4.122 1.293 5.773 1.28 1.766 2.88 2.995 4.902 3.443 0.602 1.229 1.178 2.406 1.715 3.482 1.28 2.637 4.826 4.096 7.501 3.187 1.459-0.486 3.008-0.55 4.454-1.062 2.534-0.87 5.286-3.533 4.877-6.682-0.166-1.357-0.307-2.637-0.704-3.942v-0.038c-0.205-0.435 1.946-4.378 2.97-6.528 3.174-6.592-3.059-12.083-7.974-15.091zM460.864 264.806c0.435 1.587 1.242 2.739 2.24 3.533l0.307 0.23c2.637 2.074 5.99 1.382 8.589-0.704 5.030-4.083 8.384-9.958 12.109-15.219 3.955-5.53-3.776-13.35-9.088-9.446-3.981 2.906-8.947 3.61-13.325 5.76-2.637 1.28-3.802 5.018-3.046 7.795 0.73 2.688 1.485 5.35 2.214 8.051zM559.104 676.672c-18.522 0-18.522 29.837 0 29.837s18.522-29.837 0-29.837zM545.216 603.802c-18.522 0-18.522 29.811 0 29.811 18.509 0 18.509-29.811 0-29.811zM491.75 696.499c1.638-0.87 2.931-2.458 3.226-4.762-0.333 1.997-1.51 3.712-3.226 4.762z" />
<glyph unicode="&#xe904;" glyph-name="cart" d="M879.232 505.6c-7.808 0-14.131 6.451-14.131 14.4v158.4c0 15.885-12.672 28.8-28.25 28.8h-677.952c-15.578 0-28.25-12.915-28.25-28.8v-403.2c0-15.872 12.672-28.8 28.25-28.8h409.6c7.795 0 14.118-6.438 14.118-14.4 0-7.949-6.323-14.4-14.118-14.4h-409.6c-31.206 0-56.499 25.792-56.499 57.6v403.2c0 31.808 25.293 57.6 56.499 57.6h677.952c31.206 0 56.499-25.792 56.499-57.6v-158.4c0-7.949-6.323-14.4-14.118-14.4zM286.016 419.2c7.795 0 14.118-6.451 14.118-14.4s-6.323-14.4-14.118-14.4h-84.749c-7.795 0-14.118 6.451-14.118 14.4s6.323 14.4 14.118 14.4h84.749zM187.149 620.8c0 15.91 12.646 28.8 28.25 28.8h112.986c15.603 0 28.25-12.89 28.25-28.8v-115.2c0-15.91-12.646-28.8-28.25-28.8h-112.986c-15.603 0-28.25 12.89-28.25 28.8v115.2zM215.398 505.6h112.986v115.2h-112.986v-115.2zM370.765 390.4c-7.808 0-14.131 6.451-14.131 14.4s6.323 14.4 14.131 14.4h84.736c7.808 0 14.131-6.451 14.131-14.4s-6.323-14.4-14.131-14.4h-84.736zM526.118 318.4c0-7.949-6.323-14.4-14.118-14.4h-310.733c-7.795 0-14.118 6.451-14.118 14.4s6.323 14.4 14.118 14.4h310.733c7.795 0 14.118-6.451 14.118-14.4zM526.118 404.8c0 7.949 6.323 14.4 14.131 14.4h84.749c7.795 0 14.118-6.451 14.118-14.4s-6.323-14.4-14.118-14.4h-84.749c-7.808 0-14.131 6.451-14.131 14.4zM794.483 419.2c70.208 0 127.117-58.022 127.117-129.6s-56.909-129.6-127.117-129.6c-70.208 0-127.117 58.022-127.117 129.6s56.909 129.6 127.117 129.6zM794.483 188.8c54.515 0 98.867 45.222 98.867 100.8s-44.352 100.8-98.867 100.8c-54.515 0-98.867-45.222-98.867-100.8s44.352-100.8 98.867-100.8zM762.099 285.389l16.051-16.384 46.95 71.782c4.326 6.63 13.133 8.384 19.584 3.994 6.49-4.416 8.256-13.338 3.917-19.968l-56.499-86.4c-2.342-3.584-6.144-5.914-10.368-6.336-0.435-0.051-0.909-0.077-1.382-0.077-3.712 0-7.334 1.51-9.984 4.224l-28.25 28.8c-5.517 5.619-5.517 14.733 0 20.365 5.517 5.619 14.464 5.619 19.981 0z" />
<glyph unicode="&#xe905;" glyph-name="close" d="M896.973 714.598l-266.97-267.802 264.358-265.19c32.602-32.717 32.602-85.734 0-118.438s-85.466-32.704-118.067 0l-264.371 265.19-264.358-265.19c-32.602-32.704-85.466-32.704-118.067 0-32.614 32.704-32.614 85.722 0 118.438l264.358 265.19-266.97 267.802c-32.614 32.704-32.614 85.734 0 118.451 32.602 32.704 85.466 32.704 118.067 0l266.97-267.814 266.97 267.814c32.614 32.704 85.478 32.704 118.080 0 32.602-32.717 32.602-85.747 0-118.451z" />
<glyph unicode="&#xe906;" glyph-name="face" d="M102.4 857.69v-819.29h819.392v819.29h-819.392zM623.322 530.189l-5.773-72.589h-77.274v-252.16h-97.638v252.16h-52.096v72.589h52.096v48.755c0 21.504 0.563 54.63 16.768 75.162 17.114 21.76 40.55 36.544 80.87 36.544 65.728 0 93.376-9.024 93.376-9.024l-13.018-74.317c0 0-21.696 6.042-41.946 6.042-20.301 0-38.413-6.976-38.413-26.47v-56.691h83.046z" />
<glyph unicode="&#xe907;" glyph-name="fruits" d="M724.352 539.187c-13.53 0-27.981 3.469-42.931 10.317-4.134 1.894-6.899 5.875-7.181 10.368-0.064 0.922-1.28 22.81 15.974 41.011 20.096 21.222 55.616 28.198 105.011 20.326 3.546-0.563 6.682-2.611 8.576-5.632 1.894-3.034 2.368-6.72 1.318-10.125-0.832-2.701-21.312-66.266-80.768-66.266zM708.634 584.371c-5.261-5.414-7.642-11.366-8.73-15.872 8.666-3.136 16.87-4.723 24.461-4.723 27.034 0 43.046 20.723 50.931 35.2-31.885 2.944-54.528-2.086-66.662-14.605zM679.091 521.574c5.683 2.317 11.661 4.39 27.2 5.99 38.438 4.019 70.618-27.686 71.885-28.979 22.157-25.869 30.822-55.398 26.368-88.384-7.923-58.803-57.792-115.034-82.752-132.070-10.714-7.322-22.669-11.021-35.494-11.021-12.442 0-23.053 3.546-29.965 6.63-6.874-3.085-17.498-6.63-29.978-6.63-12.826 0-24.768 3.712-35.494 11.034-24.947 17.050-74.829 73.293-82.752 132.083-4.429 32.986 4.237 62.49 25.779 87.706 1.907 1.984 33.792 33.651 72.512 29.632 15.526-1.587 21.504-3.648 27.187-5.978 2.406-0.986 4.582-1.818 10.803-2.278 5.414 59.11-34.266 96.96-36.032 98.611-4.979 4.634-5.261 12.403-0.589 17.357 4.659 4.941 12.506 5.261 17.498 0.64 2.125-1.946 49.395-46.438 44.058-116.544 5.453 0.474 7.475 1.28 9.766 2.202zM624.102 498.88c-3.328 1.357-7.078 2.893-20.314 4.25-26.957 2.867-51.341-21.478-51.558-21.722-16.23-19.021-23.002-42.112-19.507-67.917 7.334-54.592 56.218-104.154 72.23-115.098 6.49-4.454 13.709-6.694 21.389-6.694 11.635 0 21.094 4.928 23.706 6.451 1.946 1.101 4.109 1.664 6.272 1.664 2.15 0 4.314-0.55 6.234-1.651 2.65-1.523 12.173-6.464 23.744-6.464 7.693 0 14.886 2.24 21.402 6.694 16.026 10.944 64.896 60.493 72.243 115.085 3.469 25.818-3.29 48.896-20.122 68.595 0.013 0 0.013 0 0.013 0-0.064 0-24.384 23.859-50.957 21.069-13.222-1.357-16.998-2.893-20.326-4.262-6.758-2.765-12.301-4.442-32.205-4.506-19.955 0.064-25.498 1.754-32.243 4.506zM444.57 256.96c-31.168 0-56.525 25.101-56.525 55.962s25.357 55.962 56.525 55.962c31.168 0 56.525-25.101 56.525-55.962s-25.357-55.962-56.525-55.962zM444.57 344.294c-17.472 0-31.693-14.080-31.693-31.373s14.221-31.386 31.693-31.386c17.472 0 31.693 14.093 31.693 31.386s-14.221 31.373-31.693 31.373zM431.731 385.203c-31.155 0-56.512 25.101-56.512 55.936 0 30.861 25.357 55.949 56.512 55.949 31.168 0 56.512-25.101 56.512-55.949s-25.344-55.936-56.512-55.936zM431.731 472.499c-17.472 0-31.68-14.067-31.68-31.36 0-17.28 14.208-31.347 31.68-31.347s31.68 14.054 31.68 31.347c0 17.306-14.208 31.36-31.68 31.36zM349.427 481.754c-2.726 0-5.517 0.934-7.731 2.56-1.242 0.934-30.31 23.219-27.635 57.203 2.253 28.416 25.728 54.72 69.773 78.182 4.032 2.138 8.883 1.92 12.685-0.538 3.814-2.47 5.952-6.81 5.568-11.302-0.013-0.282-2.278-28.826 4.979-57.062 3.366-13.069 0.141-26.368-9.331-38.451-13.632-17.344-40.205-30.592-48.307-30.592zM383.027 544.73c-3.968 15.386-5.466 30.579-5.939 42.432-23.808-15.642-36.941-31.821-38.246-47.386-1.19-14.118 7.629-25.741 13.338-31.667 11.469 5.402 35.046 20.275 30.848 36.621zM349.568 461.363c4.275-5.312 3.392-13.043-1.971-17.267-2.291-1.792-5.018-2.675-7.744-2.675-3.648 0-7.258 1.587-9.715 4.634-43.418 53.939-91.584 31.104-93.606 30.106-6.093-3.021-13.568-0.589-16.64 5.453-3.072 6.029-0.691 13.376 5.389 16.461 0.678 0.333 67.904 33.331 124.288-36.71zM330.432 418.522c31.155 0 56.512-25.101 56.512-55.936 0-30.861-25.357-55.962-56.512-55.962-31.168 0-56.512 25.101-56.512 55.962 0 30.835 25.357 55.936 56.512 55.936zM330.432 331.213c17.459 0 31.68 14.080 31.68 31.373 0 17.28-14.208 31.36-31.68 31.36s-31.68-14.080-31.68-31.36c0-17.293 14.221-31.373 31.68-31.373z" />
<glyph unicode="&#xe908;" glyph-name="granola" d="M739.136 269.888c-1.28-3.866-5.133-5.146-8.986-5.146h-436.211c-3.84 0-6.413 1.28-8.973 3.853-44.915 44.992-70.566 100.25-74.419 159.373 0 3.866 1.28 6.426 3.853 8.998 2.56 3.866 5.133 5.146 8.986 5.146h28.826c-0.256 2.611-0.602 5.274-0.602 7.706 0 51.418 47.462 93.824 103.91 93.824 1.293 0 2.573 0 3.853 0 24.384 52.698 83.392 87.398 151.386 87.398 68.006 0 127.014-34.701 151.398-87.398 1.28 0 2.56 0 3.853 0 57.728 0 103.91-42.406 103.91-93.824 0-2.534-0.346-5.12-0.627-7.706h31.424c3.853 0 6.413-1.28 8.986-3.853 2.56-2.573 3.84-6.426 3.84-8.998-3.84-59.123-29.504-114.394-74.406-159.373zM745.549 449.818c0 37.274-35.93 68.122-78.259 68.122-3.853 0-7.706 0-10.266-1.28-6.413-1.293-11.546 2.573-14.118 8.998-16.678 47.552-70.554 79.68-130.854 79.68s-114.189-33.408-130.867-79.68c-2.56-5.146-7.693-8.998-14.106-8.998-3.853 0-6.426 1.28-10.266 1.28-43.622 0-78.272-30.848-78.272-68.122 0-2.56 0-5.133 0-7.706h467.008c0 2.573 0 5.146 0 7.706zM755.814 416.41h-518.323c6.413-46.272 26.944-89.971 61.581-125.965h425.946c34.637 35.994 55.168 79.693 61.581 125.965h-30.784z" />
<glyph unicode="&#xe909;" glyph-name="gulenelma" d="M836.89 789.043c-10.982-16.038-23.91-31.718-38.771-45.939-32.947-31.462-70.605-51.251-112.742-54.093-87.373-5.901-120.858-13.811-157.67-36.749l-12.915-8.064c-0.013-10.086-0.179-20.006-0.461-29.645-0.026-0.922-0.051-1.523-0.077-2.368 64.73 5.606 92.467 48.064 191.373 6.528 105.69-44.365 128.819-129.946 128.819-201.971 0-107.226-96.269-332.25-250.394-375.36-20.544-5.747-57.715 12.326-83.622 12.326s-60.493-23.398-88.755-12.326c-141.402 55.386-245.274 274.086-245.274 375.36 0 71.424 39.872 171.968 128.755 207.578 83.226 33.357 123.904-6.912 191.168-12.173 0.038 1.101 0.077 1.984 0.115 3.264 1.037 34.893 0.422 73.818-3.034 110.413-4.864 51.571-14.874 88.998-29.286 104.23-5.325 5.645-5.146 14.592 0.41 20.006 5.568 5.402 14.4 5.222 19.738-0.422 20.262-21.414 31.475-63.36 36.928-121.126 1.101-11.712 1.92-23.616 2.509-35.546 20.173 57.638 73.523 131.482 132.198 153.907 21.965 8.384 47.053 11.686 74.547 10.752 33.523-1.152 67.981-8.346 100.378-18.778 10.419-3.354 36.774-13.952 36.774-13.952s-14.093-26.176-20.71-35.853zM500.429 583.296c-41.882 0-88.602 16.243-91.341 17.011-42.304 11.968-66.496 12.608-103.667-2.291-67.482-27.034-111.117-106.765-111.117-181.274 0-111.206 113.523-304.358 227.43-348.966 18.688-5.043 46.746 14.221 78.694 14.221s64.998-16.243 76.198-13.35c115.341 29.811 229.914 223.322 229.914 348.096 0 82.381-31.642 142.272-111.59 175.834-48.358 20.314-72.090 20.070-114.509 6.49-2.842-0.922-38.131-15.77-80.013-15.77zM552.064 167.603c-13.76-10.637-30.746-17.037-50.79-17.037s-37.043 6.4-50.79 17.037c-8.346 6.451-13.875 13.043-16.87 17.933-4.070 6.63-2.061 15.347 4.48 19.469 6.541 4.134 15.142 2.099 19.213-4.544 1.344-2.176 4.723-6.208 10.099-10.368 9.101-7.040 20.262-11.238 33.869-11.238s24.755 4.198 33.869 11.238c5.363 4.16 8.755 8.192 10.086 10.368 4.070 6.643 12.672 8.678 19.226 4.544 6.541-4.122 8.55-12.838 4.48-19.469-2.995-4.89-8.525-11.482-16.87-17.933zM403.597 297.664c-7.706 0-13.952 6.336-13.952 14.144v11.315c0 2.547-0.64 7.219-2.406 11.533-2.355 5.722-5.504 8.269-11.546 8.269s-9.19-2.547-11.533-8.269c-1.779-4.314-2.419-8.986-2.419-11.533v-11.315c0-7.808-6.246-14.144-13.952-14.144s-13.952 6.336-13.952 14.144v11.315c0 5.952 1.101 14.003 4.557 22.413 6.374 15.501 18.918 25.677 37.299 25.677s30.925-10.176 37.299-25.677c3.456-8.41 4.557-16.461 4.557-22.413v-11.315c0-7.808-6.246-14.144-13.952-14.144zM626.842 376.87c23.13 0 41.869-22.157 41.869-49.498s-18.739-49.51-41.869-49.51c-23.117 0-41.856 22.17-41.856 49.51s18.739 49.498 41.856 49.498z" />
<glyph unicode="&#xe90a;" glyph-name="star-smile" d="M754.304 331.162c12.979-63.846 45.53-242.342 10.022-268.16-5.005-3.61-11.571-5.402-20.096-5.402-54.592 0-201.498 80.563-232.218 97.754-30.758-17.19-177.664-97.741-232.23-97.741-8.525 0-15.078 1.766-20.096 5.389-35.507 25.754-2.982 204.301 9.984 268.16-48.064 44.032-179.456 169.357-165.901 211.072 13.581 41.677 193.638 65.958 258.47 73.395 26.918 59.277 105.254 222.771 149.798 222.771 44.518 0 122.867-163.507 149.798-222.797 64.845-7.424 244.902-31.731 258.432-73.357 13.581-41.664-117.875-167.040-165.965-211.085zM899.354 535.411c-6.413 19.712-132.467 46.426-246.17 59.034-3.891 0.422-7.245 2.867-8.832 6.413-46.822 104.115-111.142 215.552-132.301 215.552-21.184 0-85.504-111.437-132.301-215.539-1.587-3.52-4.928-5.978-8.832-6.413-113.702-12.595-239.795-39.334-246.195-59.034-6.387-19.738 79.846-115.341 164.416-192.243 2.867-2.611 4.16-6.541 3.366-10.355-25.971-125.594-35.059-241.037-19.84-252.070 0.589-0.435 2.79-1.178 7.155-1.178 44.813 0 178.867 70.694 226.778 97.946 1.677 0.973 3.558 1.434 5.427 1.434s3.763-0.461 5.44-1.434c47.885-27.251 181.952-97.958 226.765-97.958 5.453 0 7.104 1.165 7.168 1.203 16.794 12.211 3.264 140.173-19.891 252.045-0.794 3.802 0.499 7.744 3.366 10.368 94.976 86.374 170.304 174.4 164.48 192.23zM622.080 387.802c-12.147 0-22.003 14.758-22.003 32.96 0 18.214 9.856 32.973 22.003 32.973 12.16 0 22.016-14.758 22.016-32.973 0-18.202-9.856-32.96-22.016-32.96zM511.987 266.906c-42.483 0-77.043 34.509-77.043 76.928 0 6.080 4.915 10.995 11.008 10.995s11.021-4.928 11.021-10.995c0-30.323 24.678-54.963 55.040-54.963 30.349 0 55.027 24.653 55.027 54.963 0 6.080 4.941 10.995 11.021 10.995s11.008-4.928 10.97-10.995c0-42.419-34.573-76.928-77.043-76.928zM401.946 387.802c-12.147 0-22.003 14.758-22.003 32.96 0 18.214 9.856 32.973 22.003 32.973 12.16 0 22.016-14.758 22.016-32.973 0-18.202-9.856-32.96-22.016-32.96z" />
<glyph unicode="&#xe90b;" glyph-name="instagram" d="M102.502 38.093v819.776h818.97v-819.776h-818.97zM711.987 601.562c0 29.197-23.091 53.069-51.315 53.069h-297.306c-28.288 0-51.379-23.872-51.379-53.069v-307.187c0-29.197 23.091-53.056 51.379-53.056h297.306c28.224 0 51.315 23.859 51.315 53.056v307.187zM650.906 288.845h-278.566c-8.755 0-15.898 7.334-15.898 16.397v174.605h36.71c-3.29-11.251-5.133-23.117-5.133-35.482 0-68.723 55.667-124.467 124.326-124.467 68.723 0 124.39 55.744 124.39 124.467 0 12.365-1.779 24.23-5.133 35.482h35.2v-174.605c0-9.062-7.13-16.397-15.898-16.397zM648.627 526.963h-45.248c-9.92 0-18.010 8.346-18.010 18.611v44.518c0 10.24 8.090 18.65 18.010 18.65h45.248c9.869 0 18.010-8.41 18.010-18.65v-44.518c0-10.266-8.141-18.611-18.010-18.611zM512.346 368.422c-44.339 0-80.32 36.032-80.32 80.435 0 44.442 35.981 80.435 80.32 80.435 44.403 0 80.384-35.994 80.384-80.435 0-44.403-35.981-80.435-80.384-80.435z" />
<glyph unicode="&#xe90c;" glyph-name="kargo" d="M910.656 194.24l-281.818-109.939c-2.163-1.101-4.326-1.101-6.477-1.101-0.563 0-1.088 0.218-1.651 0.294-0.55-0.077-1.024-0.294-1.6-0.294-2.15 0-4.314 0-6.477 1.101l-247.27 111.040c-5.389 2.202-9.715 8.794-9.715 15.398l3.187 344.819c-0.614 1.894-1.024 3.866-1.024 5.901 0 6.592 4.314 12.096 10.79 15.386l273.19 107.75c4.314 1.101 8.64 1.101 11.878 0l253.747-108.851c3.379-1.139 5.824-3.507 7.45-6.426 1.997-2.573 3.354-5.53 3.354-8.96l3.238-350.72c0-6.592-4.326-13.197-10.803-15.398zM389.12 220.634l214.874-95.654 0.832 119.642-1.805 194.752-181.76 82.342-29.978 13.35-2.163-314.432zM522.189 602.24l-106.074-41.882 4.621-2.099 200.358-89.485 100.595 39.398-194.355 90.662c-2.048 0.781-3.738 1.984-5.146 3.405zM647.194 651.61l-84.109-33.216 197.478-92.122c1.088-0.41 1.83-1.19 2.739-1.805l94.451 36.992-210.56 90.15zM884.749 536.166l-247.373-96.128-0.973-106.176 2.15-209.984 249.434 97.856-3.238 314.432zM528.41 686.797c-2.15 0-4.314 0-6.477 1.101l-195.43 93.453c-7.565 4.39-11.878 13.184-7.565 21.978 4.314 7.706 12.954 12.096 21.594 7.706l195.443-93.466c7.552-4.39 11.878-13.184 7.552-21.978-3.238-5.504-8.627-8.794-15.117-8.794zM435.558 659.302c-2.163-5.491-8.64-8.794-15.117-8.794-2.163 0-4.326 0-6.477 1.101l-195.443 93.453c-7.565 4.39-11.878 13.197-7.565 21.99 4.326 7.693 12.954 12.096 21.594 7.693l195.443-93.453c7.565-4.39 11.878-13.197 7.565-21.99zM328.653 623.027c-3.238-5.504-9.715-8.794-15.117-8.794-2.163 0-4.314 0-6.477 1.088l-195.443 93.453c-7.552 4.403-11.878 13.197-7.552 21.99 4.314 7.706 12.954 12.096 21.594 7.706l195.443-93.453c7.552-4.403 11.878-13.197 7.552-21.99zM125.658 628.518l194.355-92.352c7.565-4.39 11.878-13.184 7.565-21.99-2.163-6.592-8.64-9.894-14.042-9.894-2.163 0-4.314 0-6.477 1.101l-195.443 93.453c-7.552 4.39-11.878 13.197-7.552 21.99 4.314 7.693 12.954 12.096 21.594 7.693zM125.658 519.68l194.355-93.453c7.565-4.403 11.878-13.197 7.565-21.99-2.163-6.605-8.64-9.894-14.042-9.894-2.163 0-4.314 0-6.477 1.101l-195.443 94.554c-7.552 4.39-11.878 13.184-7.552 21.978 4.314 7.706 12.954 12.096 21.594 7.706z" />
<glyph unicode="&#xe90d;" glyph-name="kese" d="M918.515 291.789l-44.326-23.872-56.986-48.922c-0.115-0.090-0.243-0.128-0.358-0.218-0.090-0.064-0.141-0.166-0.243-0.23-0.256-0.179-0.538-0.256-0.819-0.384-0.166-0.077-0.333-0.179-0.512-0.243-0.589-0.192-1.19-0.32-1.818-0.32-0.512 0-1.024 0.064-1.51 0.192l-175.168 47.846c-2.88 0.806-4.71 3.661-4.237 6.643l57.395 364.557v30.861c0 1.843 0.832 3.571 2.278 4.685 1.434 1.114 3.302 1.498 5.056 1.011l175.168-47.834c2.534-0.691 4.301-3.034 4.301-5.696v-30.874l44.813-291.085c0.371-2.483-0.845-4.941-3.034-6.118zM644.864 275.661l163.853-44.762 55.629 353.293-163.866 44.762-55.616-353.293zM865.088 615.334l-163.52 44.659v-19.11l163.52-44.659v19.11zM870.861 550.656l-49.178-312.358 43.405 37.261v65.6c0 3.251 2.611 5.901 5.824 5.901s5.824-2.65 5.824-5.901v-58.509l32.678 17.6-38.554 250.406zM583.245 254.669l-41.792-36.045c-0.077-0.064-0.179-0.090-0.256-0.154-0.077-0.051-0.102-0.128-0.179-0.179-0.192-0.128-0.397-0.192-0.602-0.282-0.128-0.051-0.243-0.128-0.371-0.166-0.435-0.154-0.883-0.243-1.344-0.243-0.371 0-0.742 0.051-1.101 0.141l-128.461 35.264c-2.112 0.576-3.443 2.688-3.098 4.89l42.086 268.621v22.746c0 1.344 0.614 2.624 1.664 3.443 1.062 0.819 2.419 1.101 3.712 0.755l128.448-35.251c1.869-0.512 3.162-2.24 3.162-4.198v-22.758l32.858-214.477c0.269-1.83-0.614-3.648-2.214-4.506l-32.512-17.6zM415.078 260.378l120.154-32.986 40.794 260.326-120.166 32.986-40.781-260.326zM576.576 510.669l-119.923 32.909v-14.080l119.923-32.909v14.080zM580.8 463.014l-36.058-230.17 31.834 27.469v48.32c0 2.406 1.907 4.352 4.275 4.352 2.355 0 4.262-1.946 4.262-4.352v-43.11l23.962 12.979-28.275 184.512zM348.147 268.454l-57.946-49.446c-0.102-0.090-0.243-0.128-0.358-0.218-0.090-0.064-0.141-0.166-0.243-0.23-0.256-0.179-0.55-0.269-0.832-0.397-0.166-0.064-0.333-0.166-0.512-0.23-0.602-0.205-1.216-0.333-1.856-0.333-0.512 0-1.037 0.064-1.549 0.205l-178.074 48.346c-2.931 0.806-4.787 3.686-4.301 6.707l58.342 368.397v31.181c0 1.856 0.845 3.61 2.317 4.736 1.459 1.126 3.354 1.51 5.146 1.024l178.074-48.333c2.586-0.704 4.39-3.072 4.39-5.76v-31.206l45.542-294.144c0.384-2.509-0.845-4.992-3.072-6.182l-45.069-24.115zM114.995 276.275l166.592-45.235 56.55 357.018-166.592 45.222-56.55-357.005zM338.893 619.52l-166.246 45.133v-19.315l166.246-45.133v19.315zM344.755 554.163l-49.997-315.648 44.147 37.658v66.278c0 3.29 2.65 5.965 5.914 5.965s5.926-2.675 5.926-5.965v-59.123l33.203 17.792-39.194 253.043z" />
<glyph unicode="&#xe90e;" glyph-name="paket" d="M921.6 378.458l-10.061-98.176v-1.818l-0.909-1.818-3.661-1.818-525.709-222.72-3.661-0.909-3.661 0.909-260.57 252.71-1.83 0.909-9.139 130.906v5.453l1.83 2.726 1.83 3.635 134.4 224.538v0.922l0.909 0.909h1.83l563.2 169.984 6.4-8.179v-0.909l62.17-86.362 15.539-21.824-206.618-67.264-44.8-72.73 280.678-200.896 1.83-8.179zM849.37 741.171l-53.030 74.534-519.309-157.261 55.77-83.635 516.57 166.362zM622.63 566.63v-3.635l-18.291 1.818 0.922 6.362-14.63-4.544-5.491 17.267 25.6 8.192 34.752 56.358-323.661-103.629-0.922 3.635-0.909-0.922-65.83 98.189-121.6-202.726 11.891 3.648 5.478-17.28-5.478-1.818 67.648-65.446 20.122 6.362 5.478-17.267-10.97-3.635 161.83-156.365 393.139 153.626 10.982 14.554 8.218-7.283 79.552 30.912-257.83 183.629zM393.139 165.734v-7.27h-18.278v10.010l-244.122 236.352 6.4-87.27 236.8-229.082 17.37-0.909v-1.818l494.63 209.984 6.4 64.55-499.2-194.547zM373.888 126.131l0.678 26.355 18.278-0.461-0.678-26.355-18.278 0.461zM391.36 93.542l-18.278 0.474 0.678 26.355 18.278-0.474-0.678-26.355zM756.109 363.917l10.061 14.541 21.939-15.45-10.97-14.541-21.030 15.45zM729.216 383.296l10.726 14.733 21.466-15.488-10.726-14.707-21.466 15.462zM702.912 402.342l10.714 14.733 21.478-15.45-10.714-14.733-21.478 15.45zM676.57 421.184l10.97 14.541 21.030-15.45-10.97-14.541-21.030 15.45zM650.061 440.269l10.97 14.554 21.030-15.462-10.97-14.541-21.030 15.45zM623.539 459.366l10.97 14.541 21.030-15.45-10.97-14.554-21.030 15.462zM603.43 473.907l-19.2-6.362-6.4 17.267 20.109 6.362 0.922 2.726 18.278-1.805-0.909-5.466 12.8-9.088-10.97-14.541-14.63 10.906zM602.099 532.173l2.611 26.227 18.202-1.779-2.611-26.24-18.202 1.792zM617.139 498.458l-18.278 1.818 2.739 26.368 18.291-1.83-2.752-26.355zM554.97 574.81l25.6 8.179 5.491-18.176-25.6-7.27-5.491 17.267zM529.37 547.533l-5.478 17.28 25.6 8.179 5.478-17.267-25.6-8.192zM498.278 537.536l-5.478 17.28 25.6 8.179 5.491-17.267-25.613-8.192zM461.709 545.293l25.293 7.936 5.491-17.344-25.28-7.923-5.504 17.331zM436.109 518.451l-5.478 17.28 25.6 8.179 5.478-17.267-25.6-8.192zM405.030 508.454l-5.491 17.267 25.6 8.179 5.491-17.267-25.6-8.179zM373.939 499.366l-5.478 17.267 24.678 7.27 6.4-17.267-25.6-7.27zM337.37 506.637l24.691 8.179 5.478-17.267-24.678-8.192-5.491 17.28zM306.278 496.627l24.691 8.192 5.491-17.28-24.691-8.179-5.491 17.267zM275.2 487.539l24.691 7.283 5.478-17.28-24.691-8.179-5.478 18.176zM243.558 477.747l25.293 7.898 5.478-17.344-25.293-7.91-5.478 17.357zM213.030 467.546l24.678 8.179 5.491-17.267-24.691-8.179-5.478 17.267zM269.491 361.331l-25.101-8.499-5.888 17.216 25.101 8.486 5.888-17.203zM294.016 388.864l5.862-17.216-25.126-8.448-5.85 17.229 25.114 8.435zM331.098 382.336l-25.114-8.461-5.862 17.229 25.114 8.448 5.862-17.216zM355.597 409.882l5.862-17.216-25.114-8.448-5.862 17.216 25.114 8.448zM392.755 403.315l-25.114-8.461-5.862 17.216 25.114 8.461 5.862-17.216zM417.523 430.093l5.862-17.216-25.114-8.461-5.862 17.216 25.114 8.461zM454.63 423.514l-25.126-8.435-5.85 17.229 25.126 8.422 5.85-17.216zM480 451.174l5.491-17.267-24.691-8.179-6.4 17.267 25.6 8.179zM510.323 461.786l5.862-17.216-25.114-8.461-5.862 17.229 25.114 8.448zM547.43 455.258l-25.101-8.474-5.888 17.216 25.114 8.474 5.875-17.216zM572.224 481.907l5.875-17.216-25.114-8.461-5.875 17.216 25.114 8.461zM181.939 457.549l24.691 8.179 5.478-17.28-24.678-8.179-5.491 17.28zM150.31 448.435l25.293 7.923 5.491-17.344-25.293-7.91-5.491 17.331z" />
<glyph unicode="&#xe90f;" glyph-name="elma" d="M812.262 169.126c-70.451-81.92-168.384-130.739-259.443-130.739-19.968 0-39.232 2.509-57.549 7.194-1.946-0.474-3.981-0.627-6.029-0.205-10.304 1.741-20.608 3.482-30.925 8.704-12.019 3.482-24.051 3.482-36.083 0-10.304-3.482-20.608-6.963-30.925-8.704-5.158-3.494-13.747-3.494-22.336-3.494-113.395 0-223.36 113.306-252.57 266.688-18.893 95.859-1.715 188.237 42.957 252.723 30.925 45.325 73.882 71.462 121.984 80.179 36.083 5.222 70.451 0 106.534-17.434 12.621-5.76 26.419-9.357 40.422-10.893 1.28 13.926 4.403 37.235 11.853 64.832-27.072-14.771-60.646-22.566-100.39-22.566-92.774 0-187.277 40.090-190.707 41.843-5.158 3.469-10.317 6.963-10.317 13.939-1.715 5.222 0 10.458 5.158 15.68 5.158 5.235 130.586 130.739 247.411 130.739 46.323 0 83.622-19.827 112.128-56.192 15.066 17.178 32.922 32.934 54.541 45.722 8.589 5.222 18.893 1.728 24.051-6.963 5.146-8.73 1.715-19.187-6.874-24.41-87.68-49.421-107.712-160.55-112.154-201.933 12.262 1.779 24.128 5.056 34.842 10.202 36.070 17.434 70.438 22.656 106.522 17.434 64.922-9.638 118.106-56.358 147.571-127.731l72.358 82.419c3.43 3.482 6.861 5.222 12.019 5.222s8.589-1.741 12.032-5.222c101.363-97.613 85.901-289.344-36.083-427.034zM475.507 777.421c-22.349 29.632-51.546 43.571-85.914 43.571-75.597 1.754-163.226-66.227-202.739-101.094 32.64-12.198 92.774-29.632 151.194-29.632 75.597 0 121.997 27.891 137.459 87.155zM599.206 606.618c-29.21 3.482-58.419 0-87.629-13.939-42.944-20.928-96.218-20.928-139.162 0-29.21 13.939-58.419 19.162-87.629 13.939-39.514-5.235-72.166-27.891-97.933-64.499-39.526-57.51-53.261-141.171-37.798-226.586 27.482-146.406 135.731-252.723 238.822-237.043 8.589 1.741 17.178 3.482 24.051 6.976 1.203 0.448 2.47 0.614 3.686 0.998-2.97 2.534-6.016 4.979-8.845 7.706-6.874 6.976-6.874 17.434-1.715 24.41l320.819 365.466c-24.179 69.018-70.298 113.907-126.669 122.573zM839.757 559.552l-396.902-451.443c30.925-22.643 67.008-34.854 109.965-34.854 80.755 0 168.384 45.325 235.392 120.282 104.806 118.515 125.414 278.861 51.546 366.016zM667.93 238.848c-10.304 0-20.608 3.482-27.482 10.458-20.621 19.174-15.462 57.51 12.019 88.896 17.19 19.174 39.526 31.373 58.419 31.373 10.317 0 20.621-3.494 27.494-10.47 20.621-19.174 15.462-57.51-12.032-88.896-17.178-19.174-39.514-31.36-58.419-31.36zM716.045 334.707c-1.715 0-1.715 0-3.443 0-6.861 0-20.608-5.235-32.64-19.174-15.462-19.174-18.893-36.608-15.462-40.090 0 0 1.715 0 3.43 0 6.874 0 20.621 5.222 32.653 19.162 15.462 19.174 18.893 36.621 15.462 40.102z" />
<glyph unicode="&#xe910;" glyph-name="diktorgen" d="M921.075 593.971c-0.064 0.23-0.141 0.435-0.205 0.653-0.371 0.922-0.858 1.818-1.51 2.611-0.090 0.115-0.192 0.192-0.282 0.307-0.346 0.384-0.691 0.781-1.101 1.126-0.32 0.269-0.691 0.461-1.037 0.678-0.166 0.102-0.294 0.23-0.461 0.32-0.922 0.525-1.907 0.896-2.944 1.114-0.077 0.026-0.154 0.077-0.218 0.090l-238.093 45.35c-0.115 0.026-0.256-0.013-0.384 0.013-0.998 0.154-1.997 0.205-3.021 0.077l-560.64-79.373c-0.128-0.013-0.218-0.090-0.333-0.102-1.050-0.179-2.048-0.486-2.995-0.986-0.038-0.026-0.102-0.026-0.141-0.051-0.128-0.064-0.205-0.166-0.32-0.23-0.435-0.256-0.87-0.499-1.28-0.819-0.307-0.256-0.55-0.55-0.819-0.845-0.115-0.102-0.256-0.179-0.346-0.294-0.064-0.064-0.102-0.141-0.154-0.205-0.64-0.768-1.152-1.6-1.549-2.509-0.038-0.090-0.090-0.179-0.141-0.282-0.051-0.141-0.064-0.307-0.115-0.448-0.294-0.87-0.486-1.766-0.538-2.701 0-0.090-0.051-0.166-0.051-0.256 0-0.026 0.026-0.064 0.013-0.090 0-0.038-0.013-0.102-0.013-0.166v-234.291c0-0.986 0.192-1.933 0.474-2.88 0.051-0.128 0.051-0.269 0.090-0.397 0.051-0.141 0.141-0.256 0.192-0.397 0.346-0.883 0.781-1.741 1.382-2.496 0.013-0.026 0.026-0.038 0.051-0.051 0.051-0.077 0.128-0.141 0.192-0.192 0.397-0.474 0.806-0.934 1.306-1.344 0.154-0.128 0.346-0.166 0.512-0.294 0.179-0.128 0.32-0.307 0.499-0.435 0.346-0.205 0.755-0.294 1.114-0.461 0.499-0.243 0.986-0.486 1.523-0.64 0.205-0.051 0.371-0.179 0.589-0.243l276.48-62.989c0.755-0.166 1.536-0.243 2.304-0.243 0.666 0 1.318 0.051 1.971 0.179l522.253 100.762c1.19 0.23 2.278 0.666 3.264 1.242 0.32 0.192 0.563 0.486 0.858 0.704 0.614 0.461 1.254 0.909 1.741 1.498 0.269 0.307 0.422 0.691 0.627 1.024 0.41 0.602 0.845 1.19 1.101 1.869 0.154 0.397 0.166 0.845 0.269 1.242 0.154 0.653 0.384 1.254 0.41 1.946 0 0.064-0.038 0.141-0.038 0.205 0.013 0.051 0.038 0.102 0.038 0.166v230.541c0 1.024-0.218 2.035-0.525 2.995zM378.88 495.744v-114.381l-256-46.566v209.933l256-48.986zM663.040 433.088l-263.68-47.987v110.438l263.68 43.878v-106.33zM683.52 563.264v60.838l170.432-32.474-170.432-28.365zM663.040 559.859l-273.792-45.568-215.181 41.178 488.973 69.21v-64.819zM162.893 321.574l215.987 39.309v-88.512l-215.987 49.203zM399.36 364.608l273.472 49.766 193.766-52.288-467.238-90.15v92.672zM683.52 542.822l217.6 36.211v-205.363l-217.6 58.714v110.438z" />
<glyph unicode="&#xe911;" glyph-name="sincap" d="M419.84 855.723c0-1.195 1.707-5.12 3.584-8.875 13.824-25.6 2.389-56.661-41.131-112.128-75.605-96.427-95.232-192.853-55.296-273.067 15.019-30.549 18.773-31.744 38.571-13.653 19.797 18.261 43.008 33.109 67.243 42.837 10.752 4.437 19.456 9.216 19.285 10.752-1.365 32.597-6.656 48.299-24.576 74.411l-18.773 27.307 17.067-18.603 16.896-18.773 2.048 44.373c3.072 67.755 8.363 75.947 8.875 13.483 0.171-28.16 2.56-65.024 5.291-81.92 2.901-16.896 5.291-32.256 5.291-34.133 0.171-1.877 6.485 3.584 14.165 11.947l13.824 15.36-7.168-12.971c-3.925-7.168-7.168-13.483-7.168-13.995 0-3.925 69.461 1.536 72.875 5.803 16.555 20.139 70.827 43.691 80.725 34.816 17.749-16.043 29.184-55.296 23.211-79.872-3.413-14.677 7.851-4.949 12.459 10.581 27.989 94.208-1.024 180.395-90.112 268.117-48.128 47.616-157.184 122.539-157.184 108.203zM489.813 809.301c119.808-81.408 179.883-171.179 178.859-267.264-0.341-33.109-5.291-66.219-6.144-40.96-0.341 12.971-14.677 42.155-25.6 52.395-12.117 11.435-52.907-1.707-81.237-26.453-10.581-9.045-70.827-19.285-66.389-11.264 0.683 1.195 10.923 18.773 22.699 39.083 27.819 48.128 24.747 48.64-12.288 1.877l-30.379-38.059-2.56 13.312c-12.629 63.488-6.144 156.501 14.677 212.309 18.261 48.469 14.336 48.128-8.704-0.683-23.381-49.493-32.256-81.237-35.157-125.952l-2.389-34.816-37.205 44.373c-57.344 68.608-57.173 65.195 0.853-20.139 36.011-52.907 39.595-59.733 43.179-80.725l3.925-22.869-18.091-7.68-18.091-7.509-18.944 16.213c-22.016 18.773-24.235 16.384-4.779-5.291l13.483-15.36-9.216-6.827c-5.291-3.755-16.896-13.653-26.112-22.187-19.627-17.92-19.627-17.92-36.352 22.357-31.744 76.459-8.704 167.936 65.707 260.096 35.499 44.032 47.616 73.899 40.277 99.157l-3.413 11.264 12.629-7.68c6.997-4.096 27.989-17.92 46.763-30.72zM592.213 527.019c-11.264-5.291-25.088-14.848-30.891-21.333l-10.24-11.605-37.376-0.341c-55.979-0.683-100.864-18.944-140.971-57.344-13.653-13.141-16.043-13.995-35.84-14.507-25.941-0.683-60.416-12.8-60.416-20.992 0.171-20.48 18.944-52.224 33.963-57.003 5.291-1.707 5.803-3.755 3.243-14.677-4.096-17.92-3.243-64.341 1.536-82.603 3.755-14.507 3.584-16.043-5.461-28.843-31.061-43.52-22.187-115.2 18.432-150.016 50.517-43.179 128.171-39.253 171.349 8.704 35.157 38.912 45.056 47.787 67.072 58.709 33.109 16.725 62.123 21.333 97.28 15.872 92.331-14.336 156.16 37.376 151.211 122.709-3.072 51.712-52.907 105.984-97.792 105.984-3.413 0-11.605 8.704-20.139 21.504-13.312 20.309-33.621 41.813-51.371 54.101-7.168 4.949-7.509 6.656-4.267 20.651 3.925 17.408 0 36.352-10.752 51.371-8.363 11.776-13.141 11.776-38.571-0.341zM629.077 517.12c7.339-12.459 8.363-37.376 2.219-48.981-3.584-6.827-3.072-8.363 5.632-14.507 17.579-11.947 50.688-48.128 59.392-64.683 6.144-11.776 10.581-16.043 16.043-16.043 68.437 0 119.808-96.768 84.821-159.744-25.429-45.909-69.803-64.683-130.731-55.125-60.928 9.387-105.131-7.68-156.16-60.245-42.325-43.52-58.88-52.565-97.451-52.565-92.843-0.171-147.797 97.792-95.573 169.984l10.24 14.165-5.461 21.333c-5.291 20.992-5.12 68.267 0.512 86.528 1.707 5.461-0.683 8.704-10.923 15.36-12.629 8.192-28.331 32.768-28.331 44.373 0 7.509 31.232 16.896 56.149 16.896 19.285 0 20.309 0.341 40.789 19.627 39.936 37.376 91.648 56.832 145.579 54.784l29.184-1.024 11.093 12.629c11.435 12.971 43.008 30.891 51.541 29.184 2.731-0.512 7.851-5.803 11.435-11.947zM614.229 385.707c-28.331-19.285-16.725-60.587 17.237-60.587 38.912 0 50.688 48.64 15.189 63.488-15.531 6.485-19.115 6.144-32.427-2.901zM651.435 378.539c7.851-6.315 10.752-18.261 6.827-29.525-9.557-27.477-52.053-20.992-52.053 7.851 0 23.893 26.283 36.523 45.227 21.675zM373.76 294.571c-22.869-9.387-27.819-38.571-9.216-55.125 33.792-30.379 79.189 14.677 47.104 46.763-11.776 11.776-23.211 14.336-37.888 8.363zM406.528 281.088c10.752-10.923 11.947-16.043 6.144-28.843-11.605-25.429-52.053-16.555-52.053 11.435 0 24.405 27.989 35.157 45.909 17.408zM550.4 207.36c-27.307-11.776-37.035-38.571-19.115-52.736 20.309-16.043 66.389-0.171 76.629 26.453 9.216 23.893-25.941 39.936-57.515 26.283zM594.091 202.069c7.339-3.925 8.704-16.896 2.901-27.648-8.363-15.872-45.739-24.917-60.416-14.677-27.136 19.115 26.795 58.88 57.515 42.325zM601.771 132.267l-11.093-4.779 10.411-24.917c12.8-31.061 13.483-31.744 28.16-26.795 16.213 5.291 29.525 31.744 29.525 58.368 0 4.949-44.715 3.584-57.003-1.877zM649.557 122.88c-6.827-30.208-8.363-33.451-18.603-38.741-12.288-6.315-12.971-5.632-22.869 18.773-10.581 26.453-10.752 26.283 25.6 27.136 16.555 0.512 17.579 0 15.872-7.168zM559.616 114.005c-8.363-5.461-18.773-13.653-23.040-18.432l-7.851-8.533 12.971-10.24c24.747-19.285 37.376-22.357 55.467-12.8l9.899 4.949-10.923 27.307c-12.117 31.061-14.165 32.085-36.523 17.749zM590.507 91.819c11.435-29.013-3.925-35.669-35.669-15.701l-16.384 10.411 8.192 8.704c9.387 10.24 31.061 22.187 33.963 18.773 1.024-1.195 5.632-11.264 9.899-22.187z" />
<glyph unicode="&#xe912;" glyph-name="menu-soru" d="M513.587 857.6c-133.146 0-244.813-104.461-244.813-232.717 0-26.586 22.349-48.102 49.933-48.102 27.571 0 49.92 21.517 49.92 48.102 0 77.837 64.154 139.635 144.96 139.635 80.819 0 144.96-61.798 144.96-139.635 0-55.245-32.896-101.21-80.525-124.122-57.69-25.088-90.022-75.379-103.091-124.134-13.056-48.768-9.664-98.714-9.664-142.733-1.818-25.702 18.33-47.974 45.018-49.728 26.688-1.766 49.792 17.651 51.622 43.354 0.154 2.125 0.154 4.25 0 6.374 0 44.032-2.099 89.101 6.451 121.024 8.538 31.91 22.784 49.549 51.533 62.054 79.565 38.272 135.296 116.864 135.296 207.91 0 128.256-108.442 232.717-241.6 232.717zM513.587 131.494c-26.739 0-48.32-20.787-48.32-46.541 0-25.766 21.581-46.554 48.32-46.554 26.752 0 48.32 20.787 48.32 46.554 0 25.754-21.568 46.541-48.32 46.541z" />
<glyph unicode="&#xe913;" glyph-name="next" d="M745.549 493.235c-128.474 116.467-256.909 232.934-385.382 349.35-52.89 47.91-131.738-29.952-78.643-78.054 114.317-103.629 228.646-207.206 342.963-310.886-114.906-107.187-229.773-214.515-344.678-321.805-52.352-48.819 26.509-126.72 78.682-78.003 129.024 120.461 258.048 240.909 387.059 361.357 21.363 20.006 21.901 58.266 0 78.042z" />
<glyph unicode="&#xe914;" glyph-name="ordercheck" d="M836.262 89.6h-648.525c-47.053 0-85.338 37.389-85.338 83.354v550.093c0 45.965 38.285 83.354 85.338 83.354h648.525c47.053 0 85.338-37.389 85.338-83.354v-550.093c0-45.965-38.285-83.354-85.338-83.354zM887.462 723.046c0 27.584-22.963 50.010-51.2 50.010h-648.525c-28.237 0-51.2-22.426-51.2-50.010v-550.093c0-27.584 22.963-50.010 51.2-50.010h648.525c28.237 0 51.2 22.426 51.2 50.010v550.093zM802.138 339.648h-580.275c-9.421 0-17.062 7.462-17.062 16.666s7.642 16.666 17.062 16.666h580.275c9.421 0 17.062-7.462 17.062-16.666s-7.642-16.666-17.062-16.666zM513.331 487.296c-2.982-4.314-7.859-7.014-13.171-7.309-0.32-0.026-0.64-0.038-0.96-0.038-4.979 0-9.715 2.112-12.966 5.837l-50.496 57.651c-6.131 6.989-5.286 17.523 1.882 23.501 7.168 5.99 17.933 5.171 24.051-1.818l35.93-41.024 94.118 136.064c5.274 7.616 15.859 9.638 23.693 4.48 7.808-5.158 9.856-15.526 4.582-23.142l-106.662-154.202zM324.262 289.638h375.475c9.421 0 17.062-7.475 17.062-16.666 0-9.216-7.642-16.678-17.062-16.678h-375.475c-9.421 0-17.062 7.462-17.062 16.678 0 9.19 7.642 16.666 17.062 16.666z" />
<glyph unicode="&#xe915;" glyph-name="picture" d="M856.435 38.4h-688.87c-35.93 0-65.165 29.235-65.165 65.165v688.87c0 35.93 29.235 65.165 65.165 65.165h688.87c35.93 0 65.165-29.235 65.165-65.165v-688.87c0-35.93-29.235-65.165-65.165-65.165zM884.365 792.435c0 15.398-12.531 27.93-27.93 27.93h-688.87c-15.398 0-27.93-12.531-27.93-27.93v-453.786l156.89 132.070c6.323 5.325 15.386 5.824 22.285 1.267l300.16-199.168 147.034 111.603c6.31 4.8 14.963 5.082 21.581 0.666l96.781-64.525v471.872zM884.365 275.814l-106.419 70.938-126.118-95.731 46.131-30.605c8.576-5.696 10.906-17.242 5.222-25.805-3.584-5.414-9.51-8.333-15.526-8.333-3.546 0-7.117 0.998-10.278 3.098l-367.539 243.878-170.202-143.283v-186.406c0-15.398 12.531-27.93 27.93-27.93h688.87c15.398 0 27.93 12.531 27.93 27.93v172.25zM564.698 521.344c-56.064 0-101.658 45.606-101.658 101.658s45.606 101.658 101.658 101.658c56.051 0 101.658-45.606 101.658-101.658s-45.606-101.658-101.658-101.658zM564.698 692.083c-38.093 0-69.082-30.989-69.082-69.069 0-38.093 31.002-69.082 69.082-69.082s69.069 30.989 69.069 69.082c0 38.080-30.989 69.069-69.069 69.069z" />
<glyph unicode="&#xe916;" glyph-name="sepet" d="M905.037 80.346c-12.864-14.080-29.99-22.758-49.28-22.758h-687.629c-18.214 0-36.416 8.678-48.205 22.758-12.851 12.992-19.277 32.486-17.126 50.906l54.618 611.853c0 1.075 0 1.075 0 1.075v1.075c0 1.101 0 3.264 1.075 4.339v1.088c1.062 1.088 2.138 3.251 3.213 4.339l63.194 75.802c4.275 4.339 10.714 7.59 17.139 7.59h539.827c7.488 0 13.914-3.251 18.202-9.754l49.267-75.802c0-1.088 0-1.088 0-1.088 1.075-1.088 1.075-3.251 2.15-4.339 1.062-1.075 1.062-3.251 1.062-4.326l68.557-610.778c2.138-18.419-3.213-37.901-16.064-51.981zM770.074 793.997h-517.325l-25.715-31.398h563.392l-20.352 31.398zM877.184 127.987l-65.331 590.208h-612.659l-52.493-590.208c-1.062-6.49 1.075-13.005 5.363-17.331 4.275-5.414 9.638-7.578 16.064-7.578h687.629c6.438 0 11.789 3.251 16.064 7.578 4.288 4.326 6.438 10.842 5.363 17.331zM511.949 370.573c-167.091 0-182.093 161.357-185.306 246.912-4.275 5.402-7.488 13.005-7.488 20.57 0 16.243 13.914 30.31 29.978 30.31 16.077 0 29.99-14.067 29.99-30.31 0-7.565-3.2-14.067-7.488-19.494 2.138-108.288 24.627-202.496 139.238-202.496s137.101 95.283 139.238 203.584c-4.288 4.339-6.426 10.842-6.426 18.406 0 16.243 13.926 30.31 29.99 30.31s29.99-14.067 29.99-30.31c0-8.653-3.213-16.243-8.563-21.658-1.075-85.542-17.139-245.824-183.155-245.824z" />
<glyph unicode="&#xe917;" glyph-name="soru" d="M809.306 165.837c-78.157-81.856-183.296-127.437-296.806-127.437-7.437 0-13.952 0.934-21.389 0.934-207.488 11.162-377.754 181.389-387.981 387.891-6.515 113.485 33.498 221.389 111.642 303.245 82.816 87.437 196.326 133.018 318.208 126.502 206.541-10.227 376.806-180.454 387.968-387.891 6.515-113.485-33.485-221.389-111.642-303.245zM892.109 468.147c-9.306 192.55-168.41 351.616-360.998 360.922-6.515 0.934-13.018 0.934-19.533 0.934-105.139 0-203.763-41.869-276.339-119.066-72.563-76.275-109.786-176.742-104.205-281.856 9.306-192.55 168.41-351.616 360.998-360.909 112.576-6.515 218.65 36.275 295.872 118.131 72.576 76.275 109.786 176.73 104.205 281.843zM576.704 456.064c-31.642-24.192-50.24-58.611-50.24-94.886v-5.581c0-7.437-6.515-13.952-13.965-13.952-7.437 0-13.952 6.515-13.952 13.952v5.581c0 45.581 22.336 88.371 61.414 117.21 20.467 14.886 32.563 39.066 31.629 65.114-1.869 41.856-36.288 76.275-77.222 77.21-21.402 0.922-41.869-7.45-57.69-22.336-15.821-14.874-24.192-35.341-24.192-56.742 0-7.437-6.515-13.952-13.952-13.952s-13.952 6.515-13.952 13.952c0 28.838 12.096 55.821 32.563 76.288 20.467 20.454 48.371 31.616 77.222 30.694 55.821-1.869 102.349-48.371 105.139-104.179 0.922-34.419-14.899-67.904-42.803-88.371zM511.578 299.789c20.467 0 37.21-16.742 37.21-37.21s-16.742-37.21-37.21-37.21c-20.467 0-37.222 16.742-37.222 37.21s16.755 37.21 37.222 37.21z" />
<glyph unicode="&#xe918;" glyph-name="super-gida" d="M720.55 294.694c-0.627-0.64-1.421-1.062-2.074-1.677-0.307-0.422-0.474-0.896-0.87-1.28-49.933-50.112-114.547-74.675-180.147-74.675s-131.2 25.549-181.146 75.661c-47.974 48.154-74.406 113.011-74.406 181.798s27.418 132.659 75.392 180.813c0.998 0.998 2.138 1.741 3.341 2.227 0.218 0.218 0.358 0.499 0.576 0.717 13.709 13.76 33.293 20.634 56.794 20.634 59.725 0 140.992-44.224 211.482-114.97 69.517-70.758 113.574-151.334 112.602-212.262 0-24.563-6.861-43.238-21.542-56.986zM339.827 603.034c-17.088-26.112-28.582-55.142-34.24-85.901 4.032 8.179 8.845 15.987 14.502 23.219 1.958 2.957 6.861 9.83 15.667 9.83 4.902 0 9.792-3.93 9.792-9.83 0-4.902-3.917-8.845-7.834-9.818 0 0-0.973-0.986-0.973-1.971-8.819-12.774-15.667-26.534-20.57-41.267-1.958-2.957-5.875-5.901-9.792-5.901-0.973 0-1.958 0-2.931 0-0.614 0.243-1.101 0.666-1.638 0.998-0.115-2.944-0.32-5.888-0.32-8.858 0-9.882 0.819-19.635 1.997-29.325 1.971 9.779 5.862 19.546 10.726 29.325 2.944 4.915 8.819 5.901 13.709 2.944 4.902-2.944 5.875-8.845 2.944-13.76-3.917-6.874-6.861-14.733-8.819-22.592 0-4.915-4.89-7.859-8.806-7.859-0.986 0-0.986 0-1.958 0-3.034 0.602-5.53 2.816-6.874 5.734 4.16-27.827 13.248-54.477 26.573-78.899l3.802 49.574c-1.958 3.93-0.986 8.845 1.958 11.789 3.917 3.93 9.792 3.93 13.696 0 3.917-4.915 3.917-10.803 3.917-12.774l-3.917-52.083c-0.973-4.902-4.89-8.845-9.779-8.845-1.075 0-1.984 0.333-2.918 0.627 9.152-14.682 19.878-28.454 32.282-40.909 48.371-48.55 112.41-71.642 175.795-69.389l-9.344 28.109c-1.958 4.915 0.986 10.816 5.875 12.787 4.902 1.958 10.778-0.986 12.736-5.901l10.765-32.435c0.128-0.32 0.064-0.653 0.154-0.986 11.61 1.421 23.066 4.006 34.419 7.13-0.090 0.576-0.307 1.088-0.307 1.728 0 6.874-0.973 13.747-1.958 20.634-0.973 4.915 2.944 10.803 7.834 10.803 4.902 0.986 10.778-2.944 10.778-7.859 0.819-6.592 1.51-13.184 1.754-19.789 16 5.824 31.526 13.35 46.221 22.81-0.346 0-0.627-0.077-0.986-0.077-60.698 0-140.992 44.224-211.482 114.982-69.517 69.76-112.602 151.322-112.602 212.25 0 0.614 0.141 1.152 0.154 1.754zM615.782 550.182c-65.6 65.843-143.923 109.082-197.773 109.082-18.611 0-33.293-4.915-43.085-14.746s-15.667-24.563-15.667-43.238c0-54.042 42.099-132.659 107.699-198.502 65.6-65.83 142.95-109.069 197.786-109.069 15.834 0 28.621 3.789 38.182 10.906 0.32 0.307 0.666 0.576 0.986 0.883 0.333 0.346 0.755 0.486 1.126 0.781 0.896 0.755 1.958 1.344 2.778 2.163 9.792 9.83 15.667 24.576 15.667 43.238 0 54.054-42.099 132.659-107.699 198.502zM642.214 330.061c-41.114 0-102.797 35.379-157.632 90.406-54.822 55.027-90.074 116.941-89.101 158.208 0 14.746 3.917 25.562 12.736 34.394 7.834 7.872 19.571 11.802 33.28 11.802 41.126 0 102.81-35.379 157.645-90.406 54.822-55.027 90.074-116.941 89.101-158.208 0-14.746-3.917-25.549-12.736-34.394-7.834-7.872-18.598-11.802-33.293-11.802zM585.434 520.704c-50.918 50.112-108.685 84.506-143.936 84.506-8.806 0-15.667-1.958-19.584-6.874-3.904-3.93-6.848-10.816-6.848-19.661 0-35.366 33.293-93.35 84.198-144.448 49.946-51.098 107.712-84.506 143.936-84.506 8.806 0 15.667 1.958 19.584 6.874 3.917 3.93 6.848 10.816 6.848 19.661 0 35.366-33.293 93.35-84.198 144.448zM418.010 273.075c-0.986 0-0.986 0-0.986 0-4.89 0-8.806 3.93-9.792 8.845l-6.848 56.986c0 1.971-0.986 6.886-1.958 8.845-3.917 3.93-4.902 9.83-0.986 13.76s9.792 4.915 13.709 0.986c7.834-5.901 8.819-15.731 8.819-21.619l6.848-56.998c0.973-4.915-2.931-9.83-8.806-10.803zM380.8 408.678c-5.875 0-9.792 3.93-9.792 9.83 0 6.874-0.986 12.774-0.986 19.648-2.931 1.971-4.89 3.93-4.89 7.859-0.986 4.915 3.917 9.83 8.806 10.816 6.861 0.986 13.709-3.93 15.667-14.746 0.986-7.859 1.958-15.718 1.958-23.578-0.973-4.915-5.875-9.83-10.765-9.83zM470.874 333.018c9.792-13.76 15.667-30.464 16.653-48.154 1.958-4.915-1.958-9.83-8.819-10.816-4.89 0-9.792 3.942-9.792 8.845-0.973 13.76-5.875 26.534-13.709 38.323-2.931 4.915-1.958 10.816 1.958 13.76 4.902 2.944 10.778 1.971 13.709-1.958z" />
<glyph unicode="&#xe919;" glyph-name="twit" d="M102.528 857.843v-819.75h819.021v819.75h-819.021zM682.074 533.299c0.115-3.699 0.218-7.437 0.218-11.136 0-113.421-84.902-244.198-240.141-244.198-47.731 0-92.109 14.234-129.408 38.566 6.579-0.806 13.261-1.216 20.122-1.216 39.565 0 75.955 13.722 104.806 36.774-36.954 0.691-68.070 25.472-78.835 59.597 5.146-0.973 10.483-1.562 15.859-1.562 7.718 0 15.194 1.037 22.272 2.995-38.592 7.91-67.725 42.598-67.725 84.211v1.037c11.392-6.4 24.422-10.253 38.259-10.714-22.682 15.386-37.581 41.664-37.581 71.462 0 15.731 4.186 30.426 11.443 43.162 41.664-51.981 103.846-86.157 173.952-89.728-1.421 6.336-2.15 12.851-2.15 19.597 0 47.373 37.811 85.811 84.39 85.811 24.32 0 46.259-10.432 61.67-27.085 19.213 3.802 37.299 11.008 53.568 20.8-6.298-20.058-19.674-36.826-37.133-47.488 17.062 2.074 33.331 6.682 48.525 13.555-11.392-17.242-25.677-32.333-42.112-44.442z" />
<glyph unicode="&#xe91a;" glyph-name="yuzde" d="M831.782 315.494c50.266-118.285-68.992-237.542-187.277-187.277-48.294-119.27-216.832-119.27-265.126 0-118.285-50.266-237.542 68.992-187.277 187.277-119.258 48.294-119.258 216.832 0 265.126-50.266 118.285 68.992 237.542 187.277 187.277 48.294 119.258 216.832 119.258 265.126 0 118.285 50.266 237.542-68.992 187.277-187.277 119.258-49.28 119.258-216.832 0-265.126zM800.243 566.822c45.338 106.445-62.093 213.888-168.55 168.55-43.366 107.43-195.149 107.43-238.515 0-106.458 45.338-213.888-62.106-168.55-168.55-47.309-18.714-79.834-65.050-79.834-119.258s33.51-100.544 79.834-119.258c-45.338-106.458 62.093-213.888 168.55-168.55 43.366-107.43 195.149-107.43 238.515 0 106.458-45.338 213.888 62.093 168.55 168.55 107.43 44.352 107.43 195.149 0 238.515zM634.65 222.835c-56.179 0-102.502 45.338-102.502 102.502 0 56.192 45.338 102.515 102.502 102.515 57.178 0 102.515-45.338 102.515-102.515 0-57.165-45.338-102.502-102.515-102.502zM634.65 386.458c-33.51 0-61.107-27.597-61.107-61.12 0-33.498 27.597-61.107 61.107-61.107 33.523 0 61.12 27.61 61.12 61.107 0.986 33.523-26.624 61.12-61.12 61.12zM348.826 313.523l297.651 297.651 29.581-29.568-297.664-297.651-29.568 29.568zM390.221 468.262c-56.179 0-102.502 45.338-102.502 102.502 0 56.179 45.338 102.502 102.502 102.502s102.502-45.325 102.502-102.502c-0.986-57.165-46.323-102.502-102.502-102.502zM390.221 631.872c-33.51 0-61.107-27.597-61.107-61.107s27.597-61.107 61.107-61.107c33.51 0 61.107 27.597 61.107 61.107s-27.597 61.107-61.107 61.107z" />
<glyph unicode="&#xe91b;" glyph-name="row" horiz-adv-x="1028" d="M957.59 377.305h-886.895c-39.045 0-70.695 31.65-70.695 70.695s31.65 70.695 70.695 70.695h886.895c39.045 0 70.695-31.65 70.695-70.695s-31.65-70.695-70.695-70.695zM957.59 818.611h-886.895c-39.045 0-70.695 31.65-70.695 70.695s31.65 70.695 70.695 70.695h886.895c39.045 0 70.695-31.65 70.695-70.695s-31.65-70.695-70.695-70.695zM70.695 77.389h886.895c39.045 0 70.695-31.65 70.695-70.695s-31.65-70.695-70.695-70.695h-886.895c-39.045 0-70.695 31.65-70.695 70.695s31.65 70.695 70.695 70.695z" />
<glyph unicode="&#xe91c;" glyph-name="sincapbold" d="M416.427 859.648c0-0.683 2.389-6.827 5.12-13.312 11.947-28.672 1.365-59.051-36.181-104.789-27.307-33.451-48.811-66.219-57.685-89.088-20.821-52.565-27.648-123.221-15.36-160.085 9.216-28.672 24.917-57.344 31.403-58.709 3.755-0.683 15.36 6.485 28.672 17.749 21.504 17.749 43.008 30.379 71.68 41.984l12.288 5.12-4.779 26.624c-3.413 16.725-8.192 30.379-13.312 37.205-4.437 6.144-8.192 12.288-8.192 13.995 0 1.365 2.389-0.683 5.461-4.779 2.731-4.096 6.144-7.509 7.509-7.509s2.731 18.773 3.072 41.984c0.341 22.869 1.707 45.056 3.413 49.152 1.707 4.437 2.731-10.581 2.731-37.547 0-49.493 7.168-111.616 12.971-111.616 2.048 0 7.509 4.096 11.947 9.557l8.192 9.216-5.461-9.216c-3.072-5.12-5.461-9.899-5.461-10.581s16.384-0.683 36.523 0.341c33.451 1.365 37.205 2.389 43.008 9.557 6.144 8.192 48.128 30.379 64.512 34.133 7.851 1.707 10.581 0 19.456-12.629 13.312-18.091 18.773-37.547 16.043-58.027-1.707-12.629-1.024-16.384 3.072-18.091 6.144-2.389 9.899 5.803 17.408 37.205 15.36 65.195-3.755 137.899-53.248 203.776-21.845 29.013-76.459 80.555-111.957 106.155-47.445 34.133-92.843 59.733-92.843 52.224zM491.52 806.059c114.347-78.165 178.176-173.397 177.152-264.192-0.341-22.869-5.12-50.176-6.144-34.133-0.683 10.24-11.947 32.768-22.869 45.397l-9.899 11.264-18.773-6.485c-26.283-9.216-45.397-19.456-59.392-31.403-10.581-9.216-13.653-10.24-35.499-10.24h-24.235l22.187 37.888c12.288 21.504 20.821 39.595 19.115 41.301-1.365 1.365-15.36-12.971-31.744-33.109-15.701-19.797-29.696-35.84-30.72-35.84-4.437 0-10.923 90.453-8.533 122.197 2.731 40.619 6.144 55.637 20.821 95.573 6.485 17.408 11.947 33.109 11.947 34.816 0 20.821-41.643-65.877-51.2-106.837-3.755-16.384-7.509-41.984-7.851-57.003s-1.707-27.307-3.072-27.307c-1.707 0-2.731 1.024-2.731 2.731 0 1.365-11.947 16.384-26.624 33.109-14.336 17.067-30.379 36.181-35.499 42.325s-10.923 9.899-12.971 8.875c-2.048-1.365 14.677-29.013 38.912-64.853 29.013-42.667 43.349-67.243 44.715-75.776 1.365-7.168 3.072-17.067 3.755-22.187 1.365-6.827 0.341-9.557-2.731-9.557-2.731 0-10.24-2.731-17.067-6.485l-12.629-6.144-16.725 14.677c-15.701 13.653-24.576 18.432-24.576 12.971 0-1.024 6.144-9.216 13.995-17.749l13.995-16.043-9.557-6.827c-5.12-3.755-16.043-12.629-23.893-19.456-7.509-7.168-15.019-12.971-16.043-12.971-3.755 0-18.432 31.061-24.235 50.859-12.629 42.667-3.072 116.395 21.504 167.936 6.144 12.288 25.259 40.619 43.008 63.147 41.301 52.224 47.787 64.853 47.787 93.867v22.528l13.653-8.533c7.509-4.779 26.624-17.408 42.667-28.331zM602.453 534.016c-23.211-9.899-34.816-17.067-43.008-26.965-7.851-9.216-9.557-9.557-40.619-9.899-54.613-0.341-105.131-20.139-144.384-55.979-17.408-16.043-19.797-17.067-36.864-17.067-10.24 0-28.331-3.755-40.619-7.851l-22.187-7.851 1.024-13.653c1.365-17.749 13.653-38.912 26.965-47.445 10.24-6.485 10.581-7.851 8.533-20.48-3.413-19.456-2.048-65.877 2.048-81.579 3.413-11.605 2.731-14.336-4.437-25.6-13.312-19.797-19.456-41.301-19.797-67.243 0-20.139 1.707-27.989 10.24-46.080 12.288-26.283 33.451-47.787 59.051-60.416 16.384-7.851 22.869-9.216 51.2-9.216 27.648 0 35.157 1.365 51.2 8.875 23.552 10.923 37.888 23.211 54.613 45.739s48.469 44.032 79.189 53.248c20.139 6.144 27.989 6.827 53.248 4.779 59.051-5.12 75.776-3.755 100.352 7.509 27.648 12.971 48.469 33.109 60.416 58.709 7.509 16.043 8.875 23.893 8.875 48.128 0 25.941-1.365 31.744-11.264 51.883-6.485 13.653-17.067 27.989-25.6 35.499-16.043 13.995-44.715 28.672-55.979 28.672-8.875 0-11.947 3.072-34.475 33.792-8.533 11.947-23.893 27.989-33.451 35.84-15.701 11.947-17.408 14.336-14.677 21.845 6.827 17.749 0.683 47.787-12.971 62.805-6.485 7.509-9.216 7.509-26.624 0zM627.712 515.243c8.533-17.408 9.216-33.109 2.048-46.421-4.779-9.557-4.779-9.899 8.533-19.115 18.432-12.629 44.715-40.96 55.979-60.416 7.851-13.312 11.605-16.725 21.845-18.432 34.816-6.485 69.291-33.109 82.944-63.829 11.947-26.624 11.264-62.464-1.365-88.405-17.408-35.84-55.637-60.757-93.525-61.44-10.923 0-35.499 1.024-54.272 2.389-27.648 2.048-37.888 1.365-50.517-2.731l-15.36-5.461 13.312 12.971c40.96 38.912-20.48 71.68-63.147 34.133-13.995-12.288-18.091-27.307-10.581-38.912 6.485-10.24 25.941-16.043 39.595-11.947 14.677 4.096 12.629 1.707-5.803-7.168-15.019-7.168-31.744-22.528-67.243-61.099-7.168-7.851-21.504-18.432-32.427-23.552-16.043-7.509-23.893-8.875-48.128-8.875-25.259 0-31.744 1.365-48.811 9.899-37.547 19.115-60.416 54.613-60.416 94.549 0 26.624 6.827 48.811 20.139 64.512 9.216 11.264 9.557 11.947 4.779 26.965-5.803 18.091-6.485 75.435-1.365 91.819 3.072 10.24 2.389 11.264-5.803 15.701-13.312 7.168-24.576 20.139-29.696 35.157l-4.779 12.971 14.336 6.827c9.557 4.437 22.187 6.827 38.912 6.827l24.235 0.341 22.528 20.821c38.571 36.523 81.579 52.224 140.971 52.224 19.456 0 35.157 1.365 35.157 3.072 0 5.803 19.115 21.845 37.547 31.403 10.24 5.12 19.797 9.557 21.163 9.899 1.024 0 5.461-6.485 9.216-14.677zM596.992 197.12c7.509-7.168 1.365-21.845-12.971-31.403-15.019-10.24-40.96-10.923-49.493-1.365-5.461 6.144-5.461 7.509-0.683 17.067 11.264 21.163 48.469 30.379 63.147 15.701zM613.717 387.925c-11.947-6.485-16.384-14.677-16.384-31.403 0-14.336 10.923-29.013 24.576-33.451 21.504-6.827 47.104 12.629 47.104 35.499-0.341 27.648-30.037 43.349-55.296 29.355zM650.24 374.613c15.36-15.019 7.509-37.205-14.336-41.301-8.875-1.707-12.629-0.341-19.456 6.485-11.947 11.947-11.947 26.965 0 36.181 11.947 9.557 23.552 8.875 33.792-1.365zM376.491 297.131c-33.451-8.875-33.109-56.32 0.341-67.584 15.36-5.12 27.648-1.365 37.888 10.923 23.211 27.307-2.731 66.219-38.229 56.661zM406.187 280.747c19.797-19.797-3.413-50.176-29.696-39.253-16.384 6.827-19.797 24.917-7.168 38.229 9.216 9.899 27.307 10.581 36.864 1.024zM606.549 136.704c-7.168-2.048-13.995-5.461-14.677-7.509-1.024-2.389 3.413-16.384 9.899-31.403 10.24-24.235 11.947-26.965 19.456-25.941 21.163 2.731 34.816 21.845 35.499 49.835l0.341 17.408-18.773 0.683c-10.24 0.341-24.576-1.024-31.744-3.072zM648.533 128.853c0-11.947-8.875-36.864-14.677-40.96-11.605-8.192-14.336-6.485-23.893 15.36l-8.875 20.48 9.216 2.048c5.12 1.024 10.923 2.389 12.629 3.072 5.12 1.707 25.6 2.048 25.6 0zM563.2 118.272c-17.749-10.24-34.133-24.576-34.133-30.72 0-4.437 17.067-18.091 33.792-26.624 12.288-6.485 27.989-5.461 39.253 3.072 6.144 4.437 5.803 5.803-5.12 33.792-6.485 16.043-12.971 29.355-15.019 29.355-1.707 0-10.24-4.096-18.773-8.875zM588.117 93.013l8.875-20.821-8.533-3.072c-4.779-2.048-9.899-3.413-11.264-3.413-4.437 0-34.475 20.139-34.475 23.552 0 3.072 29.696 24.235 34.133 24.235 1.365 0 6.144-9.216 11.264-20.48z" />
<glyph unicode="&#xe91d;" glyph-name="dropdown" d="M187.733 642.731c-17.92-6.656-31.061-17.408-39.595-32.256-17.067-29.525-15.531-55.125 5.12-82.261 4.949-6.656 24.064-28.331 30.72-35.157 1.195-1.195 7.68-8.704 14.507-16.555 21.845-25.429 57.685-65.877 62.805-70.997 1.365-1.536 9.899-11.093 18.773-21.504 8.875-10.24 19.968-22.869 24.747-28.16 4.779-5.12 13.995-15.531 20.48-23.040s12.117-13.995 12.8-14.507c0.512-0.512 6.656-7.339 13.312-15.189 6.827-7.851 13.141-15.189 14.336-16.384 5.632-5.803 16.896-18.432 27.648-30.891 23.723-27.477 53.931-61.44 65.707-74.069 13.824-14.677 30.549-22.187 49.493-22.187 11.093 0 27.136 4.267 31.232 8.363 1.024 1.024 2.731 1.877 3.925 1.877 2.731 0 46.592 49.664 66.048 74.752 2.56 3.413 5.291 6.656 5.973 7.168 0.853 0.512 9.728 10.923 19.968 23.040 24.747 29.696 35.669 42.496 36.864 43.52 0.512 0.512 9.216 10.923 19.456 23.040 24.747 29.696 35.669 42.496 36.864 43.52 0.512 0.512 9.216 10.923 19.456 23.040 10.24 12.288 18.944 22.528 19.456 23.040 1.195 1.024 9.557 10.923 36.864 43.52 10.24 12.288 20.309 24.064 22.357 26.453 29.696 34.133 36.523 46.933 36.523 68.267-0.171 38.741-32.939 74.923-68.096 75.093-8.704 0-20.309-3.072-24.235-6.315-1.365-1.195-3.413-2.219-4.437-2.219-2.901 0-15.872-13.653-36.352-38.229-10.752-12.971-21.163-25.429-23.040-27.477-4.096-4.608-12.117-14.165-33.963-40.107-9.216-10.752-18.603-21.845-20.992-24.747-13.312-15.36-48.128-56.661-52.224-61.952-2.56-3.413-5.291-6.656-5.973-7.168-0.853-0.512-9.728-10.752-19.968-23.040-23.040-27.477-34.645-41.301-39.765-46.933-2.219-2.389-9.045-10.581-15.36-18.261l-11.264-13.995-4.096 3.755c-2.389 2.048-11.093 11.776-19.627 21.675-14.165 16.213-24.747 27.989-32.085 35.669-1.365 1.536-9.728 11.264-18.603 21.504-8.875 10.411-16.555 19.115-17.237 19.627-0.512 0.512-6.315 6.997-12.8 14.507-10.581 12.288-21.845 24.917-27.477 30.72-1.195 1.195-7.509 8.533-14.165 16.213s-12.971 15.019-14.165 16.213c-4.608 4.608-41.301 46.080-62.123 70.315-6.827 7.851-13.312 15.36-14.507 16.555s-8.875 9.557-16.896 18.261c-13.995 15.189-17.237 17.579-32.768 24.405-8.192 3.413-23.552 3.243-33.621-0.512z" />
<glyph unicode="&#xe91e;" glyph-name="location" d="M455.68 837.803c-6.997-1.365-16.213-3.243-20.48-4.267s-10.411-2.56-13.653-3.243c-17.579-3.925-52.395-19.456-69.632-30.891-4.096-2.731-8.021-4.949-8.875-4.949-0.683 0-1.707-0.512-2.048-1.195-0.171-0.853-3.925-3.584-8.192-6.485-4.267-2.731-17.237-14.677-29.013-26.453s-23.552-24.747-26.453-29.013c-2.731-4.267-5.632-7.851-6.315-8.192-0.853-0.341-1.365-1.365-1.365-2.048 0-0.853-2.219-4.779-4.949-8.875-4.779-7.168-13.483-23.723-18.603-35.499-1.365-3.243-3.413-7.509-4.267-9.387-1.024-1.877-2.389-5.632-3.072-8.533-0.683-2.731-2.048-7.339-3.072-10.24-18.091-53.248-15.531-124.928 6.827-179.541 10.069-24.235 31.232-66.389 41.643-82.432 6.485-9.899 9.045-13.995 10.411-17.067 5.291-10.24 37.035-52.736 58.709-77.995 23.381-27.477 71.509-74.923 104.107-102.741l28.16-24.064h9.387c10.24 0 9.387-0.512 39.253 25.6 5.12 4.437 13.312 11.435 18.261 15.531 13.995 11.776 68.437 67.072 85.163 86.869 19.968 23.211 48.981 61.952 57.856 77.141 1.536 2.901 18.091 30.037 21.333 35.499 5.12 8.192 25.259 50.347 30.208 63.147 12.8 32.768 17.749 58.027 18.773 95.573 1.024 30.208-3.072 59.563-11.605 84.48-1.024 2.901-2.389 7.509-3.072 10.24-0.683 2.901-2.048 6.656-3.072 8.533-0.853 1.877-2.901 6.144-4.267 9.387-5.12 11.776-13.824 28.331-18.603 35.499-2.731 4.096-4.949 8.021-4.949 8.875 0 0.683-0.512 1.707-1.195 2.048-0.853 0.341-3.584 3.925-6.485 8.192-9.728 14.507-60.757 63.147-66.389 63.147-0.512 0-4.096 2.219-8.192 4.949-17.067 11.264-50.859 26.453-69.632 30.891-3.243 0.853-9.045 2.219-12.8 3.243-28.331 7.168-74.069 9.216-99.84 4.267zM536.917 796.331c36.693-7.851 56.661-16.043 86.187-35.328 36.864-23.893 73.216-69.632 87.723-109.909 11.093-31.061 14.507-50.347 14.507-81.749 0-36.011-4.949-61.781-17.92-91.477-15.189-35.157-29.013-60.587-51.883-95.573-4.267-6.485-8.192-12.288-8.704-12.8s-2.219-2.901-3.925-5.461c-2.901-4.779-28.843-37.376-33.621-42.496-1.365-1.536-7.509-8.533-13.653-15.701-12.8-15.189-55.125-57.173-72.533-72.021-6.485-5.632-15.019-13.141-18.773-16.555-3.755-3.584-8.021-6.485-9.387-6.485s-5.632 2.901-9.387 6.485c-3.755 3.413-12.288 10.923-18.773 16.555-17.408 14.848-59.733 56.832-72.533 72.021-6.144 7.168-12.288 14.336-13.653 15.701-6.485 6.997-29.355 36.352-36.523 46.763-19.115 27.989-25.941 38.229-28.331 43.008-1.024 1.877-4.437 8.021-7.509 13.653-10.069 17.579-23.893 47.275-30.379 64.853-9.557 25.6-13.312 47.616-13.312 79.531 0 26.965 1.707 39.936 7.68 59.563 1.195 4.267 2.731 10.24 3.413 13.141 0.683 3.072 1.877 5.973 2.731 6.485 0.853 0.683 1.536 2.389 1.536 3.925 0 4.437 15.701 34.475 24.747 47.445 23.211 33.109 54.613 59.904 90.795 77.483 14.336 6.997 43.008 17.067 49.152 17.067 1.877 0.171 7.339 1.195 11.947 2.56 13.653 3.755 61.44 3.413 80.384-0.683zM466.773 735.403c-13.653-3.243-27.989-7.68-33.28-10.069-29.867-14.336-49.835-30.208-68.779-55.125-7.68-10.069-23.381-40.619-23.381-45.568 0-1.536-0.853-4.267-1.877-6.144-0.853-1.877-2.901-10.752-4.267-19.797-6.485-44.203 1.536-80.213 26.453-118.101 18.261-27.477 44.885-49.152 75.264-61.099 38.741-15.189 81.237-15.531 120.32-1.024 3.755 1.365 8.021 3.243 9.387 4.096s3.413 1.877 4.267 2.219c4.779 1.877 7.168 3.072 10.24 4.949 26.965 16.384 50.176 40.96 64 67.755 2.048 4.267 4.949 9.728 6.144 12.288 1.365 2.389 2.389 5.632 2.389 7.168 0 1.365 1.024 5.12 2.389 8.192 3.925 9.216 7.851 33.792 7.851 48.469 0 20.821-8.363 56.32-15.872 67.925-1.365 2.048-5.632 5.12-9.387 6.827-6.485 2.901-6.997 2.901-13.312 0-3.755-1.707-8.021-4.779-9.557-6.656-3.413-3.925-4.096-17.92-1.195-23.211 0.853-1.877 3.243-8.875 4.949-15.701 5.973-22.187 3.755-55.979-4.608-74.581-1.536-3.243-4.096-8.704-5.461-11.947-9.899-21.675-32.939-44.373-56.491-55.637-23.552-11.435-52.395-15.36-77.483-10.752-36.864 6.827-71.851 32.939-87.893 65.536-7.851 16.043-10.069 22.699-13.141 39.936-2.56 13.483-2.731 17.92-1.024 28.16 4.096 24.917 5.803 30.72 12.971 45.397 7.509 15.36 17.408 27.648 31.403 39.253 15.019 12.629 29.696 20.309 50.005 26.283 13.653 3.925 46.421 3.584 62.293-0.512 11.093-3.072 14.677-4.437 22.869-8.875 8.021-4.437 24.064-11.776 25.771-11.776 4.949 0 12.8 4.096 16.043 8.363 4.949 6.485 4.608 19.115-0.683 24.747-4.779 4.949-23.211 16.384-26.624 16.384-1.365 0-2.731 0.683-3.243 1.536-1.195 1.707-19.115 7.509-35.328 11.264-14.165 3.243-48.128 3.243-62.123-0.171zM638.805 211.115c-6.485-2.048-10.752-9.387-10.752-18.603 0-9.899 4.437-15.019 17.067-19.968 4.267-1.707 10.069-4.096 12.8-5.291 2.901-1.195 6.315-2.731 7.68-3.243s4.949-2.56 7.68-4.437c2.901-1.877 6.315-3.925 7.68-4.608 1.365-0.512 5.461-3.925 9.045-7.509 9.216-9.387 8.875-15.189-2.048-25.429-9.899-9.387-28.501-19.115-45.397-23.893-2.731-0.683-7.339-2.219-10.24-3.072-34.475-11.776-78.677-17.408-137.387-17.408s-102.912 5.632-137.387 17.408c-2.731 0.853-7.339 2.389-10.24 3.072-21.163 5.973-47.104 21.333-52.224 31.061-3.755 6.997-0.341 14.336 10.069 22.187 11.093 8.363 15.531 11.264 19.115 12.629 1.365 0.512 4.949 2.048 7.68 3.243 2.901 1.195 8.363 3.584 12.288 5.12 13.312 5.461 19.285 15.701 15.019 25.771-3.755 9.216-8.875 12.459-19.115 12.629-9.387 0-12.117-1.024-38.059-13.483-12.459-6.144-18.944-10.581-28.331-19.797-17.067-16.725-20.139-23.381-19.968-42.667 0-14.165 0.341-16.043 5.461-24.747 13.824-23.211 44.715-41.984 90.624-55.125 84.48-24.235 205.824-24.235 290.133-0.171 18.261 5.291 42.155 15.019 53.76 21.845 19.456 11.435 28.501 19.627 36.864 33.451 5.12 8.704 5.632 10.411 5.632 24.747 0 12.8-0.683 16.725-4.096 23.040-4.267 8.363-23.723 28.843-31.061 32.597-8.704 4.437-29.525 14.677-35.84 17.408-7.339 3.243-21.163 4.949-26.453 3.243z" />
<glyph unicode="&#xe91f;" glyph-name="yorum" d="M131.891 749.606c-20.109-34.010-7.667-89.741-7.667-127.539 0-112.41 0-225.779 0-338.189 0-16.064 12.454-23.616 24.909-22.682 3.827-4.723 9.574-9.446 18.202-9.446 40.23-2.829 81.421-5.658 121.651-9.446 17.242 0.947 32.563-3.776 45.978-15.104 0-11.341 0.96-22.682 0.96-34.010 0.96-22.682 1.92-45.35 2.867-68.019 0.96-24.563 31.616-31.181 45.018-12.288 56.525 80.307 112.077 134.144 214.566 140.762 80.461 5.67 159.974-6.618 239.475 15.117 83.341 22.669 63.219 112.422 64.179 181.376 0.96 105.805-2.88 211.61-11.494 317.414-0.96 13.235-10.534 23.616-23.949 23.616-217.434 7.565-434.88 0.947-651.354-16.998-24.909-1.894-68.019 0.947-83.341-24.563zM308.147 734.49c178.163 13.222 357.286 16.064 536.41 10.394 6.707-85.965 9.574-170.995 10.534-256.96 0-50.061-0.96-99.187-2.88-149.261-1.907-40.614-116.851-35.891-142.72-35.891-74.714 0-149.427 5.67-219.354-22.669-43.098-17.958-76.634-49.126-105.37-85.030 0 11.341-0.96 21.734-0.96 33.062-0.947 16.064-3.827 39.68-20.109 48.179-23.949 12.288-46.938 12.288-73.754 14.17-39.27 2.842-77.594 5.67-116.864 8.512 0 88.794 0 178.547 0 267.341 0 43.456 0 87.859 0 131.315-5.747 18.893 1.92 28.339 23.949 27.392 12.454 0.947 24.909 1.894 37.35 2.829 23.949 2.842 48.858 4.736 73.766 6.618z" />
<glyph unicode="&#xe920;" glyph-name="chat" d="M234.726 853.184h554.586c70.81 0 127.974-57.165 127.974-127.987v-383.936c0-70.822-57.165-127.987-127.974-127.987h-195.814l-157.837-158.272c-7.68-7.667-18.342-12.365-30.298-12.365-23.462 0-42.662 19.2-42.662 42.662v127.974h-127.974c-70.81 0-127.974 57.165-127.974 127.987v383.936c0 70.822 57.165 127.987 127.974 127.987zM789.312 810.522h-554.586c-46.925 0-85.325-38.4-85.325-85.325v-383.936c0-46.925 38.4-85.325 85.325-85.325h170.637v-170.637l170.65 170.637h213.299c46.925 0 85.312 38.4 85.312 85.325v383.936c0 46.925-38.387 85.325-85.312 85.325zM234.726 682.534h554.586v-42.65h-554.586v42.65zM234.726 554.56h511.923v-42.662h-511.923v42.662zM234.726 426.573h341.286v-42.65h-341.286v42.65z" />
<glyph unicode="&#xe921;" glyph-name="live" d="M919.501 369.523c-4.083-19.866-13.504-36.211-26.189-47.078 5.197-17.011 5.005-36.762-1.152-57.242-5.312-17.651-15.462-35.379-29.325-47.053 1.946-13.811-0.038-29.146-6.093-44.774-12.25-31.578-41.459-63.539-73.626-63.539h-341.773c-3.123 0-6.221 0.538-9.165 1.574-5.619 1.984-10.611 4.006-15.322 6.029-9.088-20.198-28.915-34.317-52.006-34.317h-205.043c-31.654 0-57.408 26.381-57.408 58.79v403.622c0 32.397 25.754 58.778 57.408 58.778h205.030c26.035 0 47.846-17.984 54.835-42.368 33.587 38.298 67.942 81.203 72.218 96.179 3.264 11.392 5.926 24.218 8.73 37.786 10.253 49.357 24.282 116.966 85.491 116.966 27.738 0 53.018-16.512 71.181-46.49 24.422-40.333 37.005-110.989 15.667-183.693h149.158c39.258 0 74.739-24.474 90.394-62.349 11.955-28.838 10.176-60.326-3.942-87.245 11.558-16.794 15.885-39.526 10.931-63.578zM366.054 545.536l-206.246 1.19-1.203-404.813 206.246-1.19c0.678 0 1.203 0.512 1.203 1.19v403.622zM850.79 448.806c19.034 20.186 13.363 41.024 10.022 49.050-6.835 16.55-22.029 27.251-38.656 27.251h-190.387c-9.728 0-18.765 5.146-23.872 13.606-5.12 8.474-5.619 19.046-1.293 27.968 30.758 63.59 24.768 133.338 2.957 169.344-7.424 12.25-15.962 19.264-23.411 19.264-14.541 0-22.131-30.925-30.528-71.36-2.906-14.016-5.901-28.531-9.754-42.010-11.789-41.152-96.525-132.941-123.597-161.485v-301.261c5.414-3.533 14.963-8.218 24-11.75h336.307c5.146 1.498 18.957 14.797 23.642 32.384 1.613 5.99 1.549 11.328-0.128 12.941-8.947 8.64-11.341 22.234-5.965 33.536 5.005 10.56 15.962 16.781 26.918 16.154 4.122 3.046 12.275 15.142 13.53 30.682 0.525 6.733-0.166 15.68-6.541 20.109-10.867 7.565-15.168 21.837-10.368 34.355 4.813 12.506 17.446 19.917 30.4 17.946 0.013 0 0.038 0 0.051 0 3.354 0 8.435 6.182 10.419 15.834 1.728 8.371 0.589 18.611-4.89 21.069-8.41 3.802-14.464 11.571-16.243 20.8-1.779 9.242 0.973 18.803 7.386 25.574z" />
<glyph unicode="&#xe922;" glyph-name="commentbalon" d="M819.2 243.226h-230.4c-17.28 0-33.203-5.696-46.029-15.309l-161.6-121.203c-0.333-0.243-0.525-0.358-0.896-0.666-13.056-10.278-29.542-16.448-47.488-16.448-42.419 0-76.787 34.406-76.787 76.813v51.213c0 14.118-11.469 25.6-25.613 25.6h-25.6c-56.55 0-102.387 45.837-102.387 102.387v332.8c0 14.131 11.456 25.6 25.6 25.6 14.131 0 25.574-11.469 25.574-25.6v-320.013c0-35.328 28.685-64 64.026-64h25.587c35.341 0 64.026-28.634 64.026-63.987v-64c0-14.144 11.456-25.6 25.574-25.6 5.427 0 10.458 1.677 14.579 4.57 0.051 0.026 0.051 0.026 0.102 0.038l162.944 122.214c0.026 0.026 0.026 0 0.051 0.026 21.632 16.755 48.819 26.739 78.336 26.739h217.6c35.354 0 63.987 28.672 63.987 64v332.826c0 35.328-28.634 64-63.987 64h-473.613c-14.118 0-25.574 11.456-25.574 25.6 0 14.106 11.456 25.574 25.574 25.574h486.413c56.563 0 102.4-45.824 102.4-102.387v-358.4c0-56.55-45.837-102.387-102.4-102.387v0zM230.4 755.226c-14.144 0-25.613 11.456-25.613 25.6 0 14.106 11.469 25.574 25.613 25.574 14.131 0 25.6-11.469 25.6-25.574 0-14.144-11.469-25.6-25.6-25.6v0z" />
<glyph unicode="&#xe923;" glyph-name="play" d="M512 38.4c-226.176 0-409.6 183.424-409.6 409.6s183.424 409.6 409.6 409.6c226.176 0 409.6-183.424 409.6-409.6s-183.424-409.6-409.6-409.6zM512 803.584c-195.802 0-355.584-159.782-355.584-355.584s159.782-355.584 355.584-355.584c195.802 0 355.584 159.782 355.584 355.584s-159.782 355.584-355.584 355.584zM602.88 426.778l-137.178-82.522c-9.651-6.426-21.44-9.638-30.003-9.638-25.728 0-47.155 20.365-47.155 49.293v168.256c0 27.866 21.427 49.306 47.155 49.306 9.638 0 20.352-3.226 30.003-8.576l136.102-82.522c16.077-9.651 26.79-25.728 26.79-41.792 0-16.077-9.638-32.154-25.715-41.805zM442.125 545.741v-155.392l127.526 77.158-127.526 78.234z" />
<glyph unicode="&#xe924;" glyph-name="clock" d="M512 38.4c-226.214 0-409.6 183.386-409.6 409.6s183.386 409.6 409.6 409.6c226.214 0 409.6-183.386 409.6-409.6s-183.386-409.6-409.6-409.6zM512 693.76c-135.731 0-245.76-110.029-245.76-245.76s110.029-245.76 245.76-245.76c135.731 0 245.76 110.029 245.76 245.76s-110.029 245.76-245.76 245.76zM511.77 379.776l-27.405 27.392c-4.224-1.472-8.589-2.688-13.325-2.688-22.618 0-40.96 18.342-40.96 40.96v32.141c-0.346 3.302-0.346 6.451 0 9.766v121.933c0 22.618 18.342 40.96 40.96 40.96s40.96-18.342 40.96-40.96v-92.826l68.224-68.224c18.906-18.906 18.906-49.549 0-68.454s-49.549-18.906-68.454 0z" />
<glyph unicode="&#xe925;" glyph-name="search" d="M389.689 854.642c-13.54-1.82-26.852-4.21-37.547-6.827-16.953-4.324-20.708-5.348-23.324-6.372-1.593-0.569-6.372-2.276-10.809-3.755-17.522-5.803-44.715-18.773-58.937-28.103-3.641-2.389-6.827-4.324-7.054-4.324s-3.868-2.389-8.192-5.348c-46.535-31.858-87.381-79.076-110.023-127.204-2.958-6.258-5.916-12.402-6.599-13.54-0.683-1.252-1.593-3.527-2.048-5.12-0.569-1.593-2.048-5.803-3.413-9.216-6.599-17.294-10.695-32.085-15.246-54.613-7.964-40.391-6.827-91.25 2.958-130.276 0.569-2.503 1.479-6.599 2.048-9.102 5.689-26.396 23.552-66.901 41.984-95.004 16.612-25.486 38.798-50.972 59.278-68.267 4.096-3.413 7.623-6.599 7.964-6.94 3.413-3.755 33.451-24.348 44.942-30.834 9.216-5.12 35.612-17.977 37.092-17.977 0.683 0 2.617-0.683 4.21-1.593 5.575-2.844 11.605-5.234 13.312-5.234 0.91 0 3.3-0.683 5.348-1.593 6.713-2.731 24.804-7.509 39.026-10.24 21.163-3.982 26.51-4.437 55.637-4.892 24.348-0.455 33.337-0.228 44.373 1.252 15.132 2.162 28.786 4.665 37.66 6.94 16.725 4.324 20.821 5.461 24.462 6.827 8.875 3.186 23.552 8.761 26.738 10.24 13.767 6.258 27.876 13.426 37.547 19.228 11.378 6.827 12.971 7.964 27.193 17.977 4.21 3.072 8.306 5.461 9.216 5.461 0.796 0 53.703-52.11 117.419-115.826 106.837-106.837 116.395-116.167 123.449-119.58 6.94-3.413 8.306-3.755 15.929-3.3 30.151 1.707 46.649 35.044 28.9 58.368-1.934 2.503-54.613 55.865-117.305 118.67-62.578 62.692-113.892 114.688-114.119 115.484-0.114 0.796 0.796 2.731 2.048 4.21 2.958 3.413 20.366 29.468 24.235 36.409 4.437 7.851 17.863 35.044 17.863 36.181 0 0.569 1.252 3.982 2.958 7.623 5.12 11.719 11.378 32.427 15.701 52.338 4.779 21.504 5.689 32.427 5.689 65.991 0 33.678-0.683 40.846-5.689 65.422-2.731 13.198-9.557 36.636-13.54 46.99-0.91 2.276-2.503 6.372-3.527 9.102-5.916 15.246-23.893 48.697-32.768 60.757-1.934 2.617-4.779 6.599-6.372 8.875-13.995 20.252-43.236 49.835-66.56 67.356-10.923 8.192-19.684 13.881-38.684 25.031-3.072 1.82-21.504 10.809-27.876 13.653-4.551 2.048-7.623 3.3-17.977 7.282-10.809 4.21-35.044 10.695-51.996 13.995-27.762 5.348-68.949 6.827-95.573 3.413zM460.231 779.662c20.252-3.413 36.523-7.623 56.32-14.791 4.892-1.707 30.379-14.222 35.726-17.408 19.911-12.060 35.157-24.121 51.883-41.074 10.354-10.581 27.648-31.516 30.037-36.523 0.796-1.82 1.934-3.755 6.485-10.809 4.437-7.054 11.719-21.732 16.384-32.996 2.276-5.575 4.892-11.947 5.803-13.995s1.593-4.551 1.593-5.461c0-1.024 0.796-4.21 1.707-7.168 2.503-8.078 4.779-17.863 6.827-29.696 2.731-15.36 2.731-60.075 0-75.776-6.372-37.433-18.887-69.746-38.571-100.011-21.163-32.427-54.386-63.033-88.519-81.806-23.324-12.857-46.080-21.163-73.728-26.852-8.192-1.707-37.205-4.551-46.649-4.551-15.588 0-46.763 3.868-59.733 7.509-14.108 3.982-18.773 5.461-27.307 8.647-40.732 15.132-77.596 41.529-105.927 76.004-7.396 8.875-18.66 24.462-18.66 25.6 0 0.341-1.934 3.755-4.324 7.623-5.12 8.42-13.198 25.145-16.953 35.044-11.492 30.151-16.27 56.661-16.27 90.908 0 35.044 3.755 55.524 16.725 91.477 1.707 4.779 11.378 24.804 15.36 32.085 23.438 41.643 64.057 79.872 106.724 100.238 18.204 8.647 25.828 11.833 28.444 11.833 1.138 0 2.389 0.455 2.844 1.024 0.341 0.569 2.276 1.365 4.324 1.82 1.934 0.455 5.689 1.479 8.192 2.276 4.21 1.365 10.468 2.731 31.289 6.713 12.288 2.276 56.434 2.389 69.973 0.114zM409.6 730.169c-12.288-0.796-19.228-1.934-30.151-4.779-2.503-0.683-6.372-1.593-8.533-2.162-4.324-0.91-9.671-2.617-15.929-5.348-2.162-0.91-5.461-2.276-7.396-3.072-3.641-1.479-19.684-9.444-23.097-11.378-10.581-6.258-30.72-21.845-39.595-30.606-8.761-8.875-24.348-29.013-30.606-39.595-7.396-12.743-17.863-37.092-19.797-46.421-0.569-2.162-1.479-6.030-2.162-8.533-3.413-12.516-4.779-23.893-4.892-39.253-0.114-14.905 0.114-17.067 2.389-22.187 1.479-3.072 5.234-8.192 8.42-11.378 13.767-13.653 34.93-14.336 49.835-1.593 9.444 8.078 12.629 16.839 13.995 38.002 1.82 29.355 14.222 56.092 35.954 77.824s48.469 34.133 77.824 35.954c20.935 1.252 29.81 4.551 37.888 13.653 12.857 14.677 12.174 36.409-1.479 50.176-10.126 10.126-18.204 12.174-42.667 10.695z" />
<glyph unicode="&#xe926;" glyph-name="mail" d="M871.642 742.029h-719.322c-27.533 0-49.946-21.99-49.946-49.024v-490.189c0-27.034 22.413-49.024 49.946-49.024h719.322c27.546 0 49.946 21.99 49.946 49.024v490.189c0 27.034-22.4 49.024-49.946 49.024zM511.987 404.685l-309.043 278.515h618.061l-309.018-278.515zM378.432 445.184l-216.115-189.005v383.782l216.115-194.778zM422.797 405.197l54.413-49.037c9.382-8.922 21.683-13.824 34.778-13.824 13.082 0 25.395 4.902 34.765 13.824l54.4 49.037 220.198-192.576h-618.752l220.198 192.576zM645.53 445.171l216.115 194.79v-383.782l-216.115 188.992z" />
<glyph unicode="&#xe927;" glyph-name="whatsapp" d="M873 811.2c-95.8 96-223.2 148.8-359 148.8-279.6 0-507.2-227.6-507.2-507.4 0-89.4 23.4-176.8 67.8-253.6l-72-263 269 70.6c74.2-40.4 157.6-61.8 242.4-61.8h0.2c0 0 0 0 0 0 279.6 0 507.4 227.6 507.4 507.4 0 135.6-52.8 263-148.6 359zM514.2 30.4v0c-75.8 0-150 20.4-214.8 58.8l-15.4 9.2-159.6-41.8 42.6 155.6-10 16c-42.4 67-64.6 144.6-64.6 224.4 0 232.6 189.2 421.8 422 421.8 112.6 0 218.6-44 298.2-123.6 79.6-79.8 123.4-185.6 123.4-298.4-0.2-232.8-189.4-422-421.8-422zM745.4 346.4c-12.6 6.4-75 37-86.6 41.2s-20 6.4-28.6-6.4c-8.4-12.6-32.8-41.2-40.2-49.8-7.4-8.4-14.8-9.6-27.4-3.2s-53.6 19.8-102 63c-37.6 33.6-63.2 75.2-70.6 87.8s-0.8 19.6 5.6 25.8c5.8 5.6 12.6 14.8 19 22.2s8.4 12.6 12.6 21.2c4.2 8.4 2.2 15.8-1 22.2s-28.6 68.8-39 94.2c-10.2 24.8-20.8 21.4-28.6 21.8-7.4 0.4-15.8 0.4-24.2 0.4s-22.2-3.2-33.8-15.8c-11.6-12.6-44.4-43.4-44.4-105.8s45.4-122.6 51.8-131.2c6.4-8.4 89.4-136.6 216.6-191.4 30.2-13 53.8-20.8 72.2-26.8 30.4-9.6 58-8.2 79.8-5 24.4 3.6 75 30.6 85.6 60.2s10.6 55 7.4 60.2c-3 5.6-11.4 8.8-24.2 15.2z" />
<glyph unicode="&#xe928;" glyph-name="fulldropdown" d="M241.421 697.741c-156.941 0.448-166.157-34.893-102.886-105.946 110.234-123.827 220.544-247.68 330.79-371.546 25.51-28.659 77.44-29.76 102.822 0 104.947 123.059 209.907 246.195 314.829 369.254 61.632 72.294 51.213 106.202-102.822 105.907z" />
<glyph unicode="&#xe929;" glyph-name="karechek" d="M885.069 38.4h-747.878c-19.136 0-34.79 15.68-34.79 34.854v749.478c0 19.187 15.654 34.867 34.79 34.867h749.619c19.136 0 34.79-15.68 34.79-34.867v-751.206c-1.741-17.446-17.395-33.126-36.531-33.126zM598.093 789.632h-180.89v-153.382l80.013 27.878c3.482 0 6.95 0 10.432 0s6.963 0 10.445-1.741l80-27.891v155.136zM852.032 789.632h-184.371v-202.189c0-10.47-5.21-20.915-13.914-27.891-6.95-3.494-13.914-6.989-20.864-6.989-3.482 0-6.963 0-10.445 1.754l-113.050 38.349-113.050-38.349c-10.445-3.482-22.605-1.754-31.309 5.235-8.704 6.976-13.914 17.421-13.914 27.891v202.189h-180.89v-683.251h681.805v683.251zM424.166 360.845l43.482-43.571 128.704 128.986c13.914 13.939 34.79 13.939 48.704 0 13.914-13.952 13.914-34.867 0-48.806l-153.062-153.382c-5.21-6.976-13.914-10.458-24.346-10.458-8.691 0-17.395 3.482-24.346 10.458l-67.84 67.981c-13.914 13.939-13.914 34.854 0 48.794 13.914 13.952 34.79 13.952 48.704 0z" />
<glyph unicode="&#xe92a;" glyph-name="takvim" d="M853.35 38.4h-682.675c-37.709 0-68.275 30.566-68.275 68.275v605.862c0 37.722 30.566 68.262 68.275 68.262h110.925v51.2c0 14.157 11.469 25.6 25.6 25.6s25.6-11.443 25.6-25.6v-51.2h153.6v51.2c0 14.157 11.469 25.6 25.6 25.6s25.6-11.443 25.6-25.6v-51.2h153.6v51.2c0 14.157 11.443 25.6 25.6 25.6s25.6-11.443 25.6-25.6v-51.2h110.95c37.709 0 68.25-30.541 68.25-68.262v-605.862c0-37.709-30.541-68.275-68.25-68.275zM870.4 712.538c0 9.408-7.654 17.062-17.050 17.062h-110.95v-51.2c0-14.157-11.443-25.6-25.6-25.6s-25.6 11.443-25.6 25.6v51.2h-153.6v-51.2c0-14.157-11.469-25.6-25.6-25.6s-25.6 11.443-25.6 25.6v51.2h-153.6v-51.2c0-14.157-11.469-25.6-25.6-25.6s-25.6 11.443-25.6 25.6v51.2h-110.925c-9.421 0-17.075-7.654-17.075-17.062v-605.862c0-9.421 7.654-17.075 17.075-17.075h682.675c9.395 0 17.050 7.654 17.050 17.075v605.862zM640 294.4h102.4v-76.8h-102.4v76.8zM640 422.4h102.4v-76.8h-102.4v76.8zM640 550.4h102.4v-76.8h-102.4v76.8zM460.8 294.4h102.4v-76.8h-102.4v76.8zM460.8 422.4h102.4v-76.8h-102.4v76.8zM460.8 550.4h102.4v-76.8h-102.4v76.8zM281.6 294.4h102.4v-76.8h-102.4v76.8zM281.6 422.4h102.4v-76.8h-102.4v76.8zM281.6 550.4h102.4v-76.8h-102.4v76.8z" />
<glyph unicode="&#xe92b;" glyph-name="yaprak" d="M805.146 254.669c-103.987-87.078-282.368-123.584-479.834-18.701-5.453 2.893-10.586 5.466-15.462 7.718 2.15 4.352 4.032 8.832 5.696 13.402 1.549 4.237 2.906 8.525 4.096 12.838 0.026 0.141 0.064 0.256 0.077 0.384 0.077 0.23 0.141 0.486 0.205 0.73 3.341-1.664 5.606-2.867 6.515-3.187 3.622-1.395 101.504-55.13 216.269-59.699 72.845-2.918 137.088-1.984 236.237 82.176 84.915 72.051 108.659 230.349 116.314 349.094 0 0.051 0 0.128 0.013 0.179 1.805 19.123 2.714 36.787 2.253 51.034-0.23 6.054-0.691 11.494-1.459 16.179 0 0.102-0.256 1.382-0.614 2.982l0.218 0.205v0.013c-0.077 0.243-0.128 0.474-0.154 0.691-0.077 0.269-0.141 0.55-0.179 0.819-0.064-0.077-0.128-0.154-0.218-0.218 0.013-0.166 0.090-0.346 0.115-0.512v-0.026c0.013-0.102 0.064-0.179 0.064-0.282 0.064-0.256 0.115-0.474 0.154-0.691-0.218-0.23-0.461-0.461-0.704-0.717-0.717-0.73-1.472-1.459-2.202-2.189l-3.29-3.264-1.766-1.562c-0.614-0.512-1.254-0.947-1.882-1.434-2.56-1.818-5.235-3.443-7.987-4.851-5.478-2.893-11.238-5.222-17.011-7.398-11.558-4.288-23.411-7.77-35.302-10.931-23.795-6.298-47.91-11.341-72.051-15.949-24.179-4.595-48.422-8.666-72.704-12.416-24.346-3.725-48.678-7.168-73.101-10.189-24.384-2.79-48.563-7.757-71.923-15.411-23.386-7.59-45.914-17.869-66.765-30.95-10.445-6.528-20.518-13.696-30.042-21.491-9.51-7.846-18.573-16.282-27.072-25.254-16.922-18.010-31.616-38.106-43.725-59.75-12.134-21.568-21.824-44.621-28.826-68.403-3.494-11.917-6.349-24.026-8.435-36.288-2.099-12.25-3.456-24.627-3.802-37.069-0.23-6.17 0.064-12.416-0.077-18.65-0.115-6.208-0.435-12.442-1.011-18.637-0.090-0.986-0.282-1.946-0.384-2.918 18.509 7.565 40.218 14.989 65.766 22.054 97.805 27.046 138.509 69.99 154.726 95.437 0.589 0.934 1.152 1.83 1.69 2.714 0.307 0.525 0.614 1.050 0.909 1.549 0.717 0.691 1.715 1.050 2.778 0.87 1.498-0.23 2.611-1.498 2.726-2.97-0.128-0.589-0.23-1.216-0.397-1.818-1.805-8.269-5.030-18.458-10.688-29.542-17.421-34.035-57.933-76.454-152.077-96.563-17.139-3.661-43.43-9.613-70.067-18.816-0.435-1.869-0.742-3.789-1.242-5.645-0.051-0.205-0.115-0.474-0.179-0.691-0.051-0.128-0.064-0.256-0.102-0.384-2.483-8.998-5.67-17.869-9.83-26.227-0.115-0.23-0.205-0.435-0.333-0.666-1.267-2.56-2.637-5.043-4.083-7.488-6.374-10.675-14.733-20.25-25.062-27.11-10.291-6.938-22.374-10.816-34.637-11.853-12.326-1.050-24.691 0.538-36.608 3.533-1.229 0.256-2.445 0.614-3.648 0.96-1.024 0.282-2.035 0.576-3.059 0.87-6.093-11.866-12.928-24.166-22.336-35.162-23.168-27.11-40.666-33.050-51.955-32.717-2.573 0.102-4.813 0.499-6.707 1.050-0.96 1.165-1.408 2.726-1.101 4.275 0.141 0.755 0.422 1.395 0.832 1.984 1.651 0.512 3.546 1.165 5.594 2.035 14.848 6.157 38.413 22.387 53.581 64.896-2.253 0.525-4.518 1.024-6.784 1.446-12.058 2.394-24.41 3.571-36.634 2.24-8.627-0.947-17.267-3.315-24.934-7.462-1.101-0.576-2.176-1.216-3.226-1.869l-0.013-0.026c-0.064-0.013-0.141-0.026-0.218-0.013-0.064-0.013-0.141-0.026-0.218-0.026-0.41-0.038-0.832 0-1.254 0.102-2.778 0.512-4.608 3.2-4.109 6.029 0.051 0.294 0.115 0.55 0.218 0.806 0.038 0.154 0.090 0.256 0.192 0.41 0.051 0.166 0.128 0.333 0.23 0.499 0.73 0.704 1.472 1.395 2.304 2.061 1.254 1.114 2.573 2.138 3.955 3.123 5.082 3.661 10.739 6.477 16.627 8.486 11.802 4.032 24.422 5.056 36.813 4.506 6.221-0.294 12.403-0.973 18.547-1.92 1.434-0.218 2.88-0.474 4.326-0.717 0.166 0.461 0.333 0.934 0.525 1.434 0.026 0.128 0.077 0.218 0.128 0.333 0.038 0.128 0.077 0.256 0.128 0.346 21.222 56.371 61.005 62.477 92.762 56.691l0.512-0.102 0.512-0.090c0.23-0.026 0.448-0.102 0.666-0.154 0.141-0.013 0.282-0.026 0.397-0.077 0-0.115 0-0.23-0.026-0.346 0.051 0 0.102-0.026 0.141-0.026 0.141-0.013 0.269-0.038 0.41-0.090 0.038 0 0.051 0 0.090-0.026 0 0.141 0 0.256 0.026 0.371-0.166 0.038-0.333 0.064-0.499 0.090-0.038 0.013-0.090 0.026-0.141 0.026 0.499 6.528 0.742 13.056 0.934 19.61 0.077 1.626 0.115 3.238 0.154 4.864 0.563 25.101 0.666 50.266 2.432 75.341 0.422 6.272 0.883 12.531 1.677 18.778 0.781 6.246 1.779 12.467 3.008 18.637 2.547 12.301 5.914 24.474 10.163 36.301 8.397 23.706 19.866 46.259 33.626 67.238 13.786 20.941 29.824 40.384 47.718 57.869 35.789 34.931 78.938 62.259 125.978 78.733 11.725 4.147 23.757 7.552 35.853 10.355 12.122 2.752 24.346 5.171 36.518 7.462 24.41 4.518 48.947 8.435 73.459 12.198 49.062 7.578 98.214 14.413 147.059 23.373 19.494 3.635 38.989 7.565 58.214 12.48 4.787 1.242 9.574 2.56 14.323 3.93 8.102 2.355 18.202 10.227 25.242 16.102 3.123 2.611 5.658 4.8 7.142 5.978 1.92 1.498 3.75 3.162 5.402 4.979v0.013c0.41 0.499 0.832 0.986 1.216 1.498 0.461 0.384 0.947 0.678 1.523 0.87 0.051 0.038 0.166 0.064 0.243 0.090 0.256 0.090 0.538 0.154 0.819 0.179 0.166 0.026 0.358 0.038 0.55 0.026 0.307 0.038 0.589 0 0.883-0.051 1.306-0.205 2.419-0.87 3.174-1.869 0.998-1.523 0.154-3.75 0.243-6.195 2.278-64.128 24.704-382.963-113.741-498.829zM319.258 271.334c0.064-0.026 0.115-0.064 0.179-0.115 0.026 0.077 0.038 0.115 0.038 0.154 0.486 1.856 0.806 3.738 1.242 5.606-0.166-0.064-0.333-0.115-0.499-0.179-0.41-1.728-0.704-3.482-1.165-5.197-0.026-0.064-0.038-0.115-0.038-0.154 0.090-0.026 0.166-0.077 0.243-0.115zM236.493 220.454c6.131 0.602 12.237 1.894 17.792 4.608 5.53 2.675 10.394 6.746 13.965 11.776 3.597 5.069 6.003 10.88 7.795 16.845 0.077 0.282 0.141 0.512 0.218 0.794 0.141 0.499 0.282 0.998 0.371 1.472-0.41 0.090-0.832 0.205-1.216 0.282-0.179 0.051-0.32 0.077-0.474 0.115l-0.499 0.102c-0.077 0.013-0.141 0.013-0.23 0.026-17.242-9.843-31.949-21.683-40.64-36.083 0.973 0.051 1.946-0.013 2.918 0.064zM212.8 223.462h-0.013c-0.051-0.154-0.141-0.269-0.218-0.41-0.051-0.141-0.141-0.256-0.205-0.397-0.218-0.397-0.461-0.819-0.666-1.267 1.062-0.141 2.112-0.269 3.162-0.384l0.026-0.013c3.085-0.358 6.195-0.563 9.293-0.691 2.816 10.368 9.216 22.707 22.413 35.942-15.757-4.442-25.229-16.973-33.792-32.781zM411.034 546.419c-16.96-18.048-31.667-38.246-43.789-59.942-12.16-21.645-21.824-44.723-28.813-68.621-3.507-11.942-6.349-24.077-8.41-36.352-2.074-12.275-3.456-24.678-3.776-37.133-0.243-6.272 0.077-12.467-0.051-18.675-0.128-6.221-0.41-12.416-0.998-18.637-0.102-1.075-0.32-2.138-0.435-3.226 0.128 0.064 0.294 0.115 0.422 0.166 0.102 0.909 0.294 1.805 0.371 2.714 0.358 3.853 0.589 7.731 0.73 11.597 0.051 0.755 0.090 1.51 0.102 2.24v0.243c0.051 1.51 0.090 3.021 0.115 4.544 0.026 1.395 0.026 2.816 0.026 4.224-0.026 4.8-0.179 9.587-0.013 14.426 0.307 12.493 1.651 24.896 3.699 37.171 2.035 12.275 4.877 24.41 8.333 36.365 6.95 23.885 16.589 47.002 28.698 68.672 12.070 21.722 26.765 41.933 43.661 60.032 3.021 3.226 6.093 6.374 9.254 9.446-3.123-3.021-6.157-6.080-9.126-9.254z" />
<glyph unicode="&#xe92c;" glyph-name="adreskutu" d="M318.805 822.784c-21.504-16.555-92.16-75.776-96.085-80.725-8.021-9.728-5.973-666.795 2.048-674.133 5.632-5.12 27.648-5.632 245.419-5.632h239.445l45.397 37.205c24.917 20.48 49.664 41.131 54.784 45.909l9.387 8.704v330.581c0 293.547-0.512 331.264-5.291 338.091l-5.291 7.509h-480.085l-9.728-7.509zM720.213 768.853l-24.576-20.48h-201.045c-110.592 0-200.875 1.195-200.875 2.56 0.171 1.365 9.728 10.581 21.333 20.309l21.163 17.749 408.576 0.341-24.576-20.48zM781.483 469.333l-0.171-299.52-27.648-22.187c-15.189-12.117-28.843-22.699-30.549-23.381-1.536-0.512-2.901 133.12-2.901 296.96l0.171 298.155 29.696 24.576c16.384 13.653 30.208 24.747 30.72 24.747 0.512 0.171 0.683-134.656 0.683-299.349zM686.080 407.040v-303.787h-430.080v607.573h430.080v-303.787z" />
<glyph unicode="&#xe92d;" glyph-name="doc" d="M174.080 829.156c-8.761-1.934-15.701-8.078-19.57-17.408-1.82-4.437-1.934-25.941-1.934-311.637l-0.114-306.745 2.503-6.485c2.731-7.282 9.899-14.45 16.725-16.725 2.958-1.024 21.163-1.593 65.536-2.048l61.44-0.569 0.683-40.391c0.683-43.577 0.796-44.487 7.168-52.793 4.779-6.372 10.354-9.216 20.366-10.695 12.629-1.934 489.586-1.934 502.215 0 12.743 1.82 19.911 6.713 24.348 16.725 2.162 4.892 2.162 10.695 2.162 310.158 0 299.577 0 305.266-2.162 310.158-2.617 5.803-7.851 11.036-14.336 14.108-4.324 2.162-7.964 2.276-67.129 2.844l-62.578 0.569-0.569 45.511c-0.455 36.636-0.91 46.194-2.276 48.924-2.958 6.144-7.851 11.719-12.857 14.45l-4.779 2.617-255.431 0.114c-140.516 0.114-257.252-0.228-259.413-0.683zM653.653 779.321c1.82-1.479 3.982-4.21 4.779-6.144 1.138-2.731 1.479-56.548 1.479-274.546v-271.019l-2.617-3.868c-1.365-2.048-3.868-4.437-5.348-5.234-2.276-1.138-48.128-1.365-222.663-1.138l-219.705 0.228-2.844 2.617c-1.479 1.365-3.3 4.551-4.096 6.94-0.91 3.186-1.252 74.183-1.252 272.839 0 244.395 0.114 268.971 1.82 272.953 2.276 5.348 5.234 7.623 11.264 8.533 2.503 0.341 101.604 0.683 220.16 0.569l215.609-0.114 3.413-2.617zM798.948 658.944c3.072-1.365 5.006-3.3 6.599-6.713 2.276-4.665 2.276-6.144 2.276-266.126 0-286.265 0.455-265.102-6.372-271.588l-2.958-2.731h-215.723c-214.016 0-215.836 0-218.908 2.276-6.258 4.665-6.713 7.054-6.372 31.289l0.341 22.187 160.996 0.228c165.092 0.228 170.325 0.341 175.332 4.551 0.91 0.796 2.162 1.479 2.617 1.479 1.707 0 8.078 8.192 10.012 12.857 1.82 4.437 1.934 21.276 1.934 238.706 0.114 145.863 0.569 234.268 1.138 234.951 0.683 0.569 17.636 0.91 43.008 0.683 35.954-0.228 42.439-0.455 46.080-2.048zM284.786 684.999c-1.138-0.341-1.479-6.258-1.479-23.666 0-20.025 0.228-23.211 1.82-23.78 1.024-0.341 66.674-0.683 146.091-0.683 117.988 0 144.612 0.228 145.863 1.479 1.138 1.252 1.365 6.372 0.91 24.235l-0.569 22.642-145.636 0.228c-80.1 0.114-146.318-0.114-147.001-0.455zM285.241 539.364c-1.82-0.455-1.934-2.389-1.707-24.007l0.341-23.552 147.115-0.341c117.191-0.228 147.001 0 147.001 1.138 0.341 15.929-0.114 45.739-0.569 46.308-0.91 0.796-289.109 1.252-292.181 0.455zM284.672 393.159c-2.048-2.048-1.934-44.601 0.228-46.308 1.138-0.91 40.391-1.138 147.001-1.024l145.522 0.341v47.787l-145.636 0.341c-112.412 0.114-146.091-0.114-147.115-1.138z" />
<glyph unicode="&#xe92e;" glyph-name="edit" d="M725.333 825.003c-13.824-6.997-440.832-434.176-445.099-445.099-1.877-4.779-15.019-51.371-29.184-103.595-37.035-136.192-46.421-127.659 98.645-87.552l99.157 27.477 212.48 212.309c116.907 116.736 216.747 218.112 221.696 225.451 12.629 17.92 14.848 46.933 5.12 65.707-8.704 16.725-94.549 102.229-107.52 107.008-14.165 5.291-43.52 4.267-55.296-1.707zM809.643 749.056c52.565-52.565 55.125-59.733 29.184-85.333l-14.677-14.165-56.149 56.149-55.979 56.149 8.363 9.045c29.525 32.085 37.205 30.208 89.259-21.845zM707.243 711.68l19.285-19.627-357.205-359.253-20.651 20.651-20.48 20.651 176.299 178.347c97.109 98.304 178.005 178.688 180.053 178.688 1.877 0.171 12.117-8.704 22.699-19.456zM619.349 443.221c-97.28-98.816-177.835-179.541-179.029-179.541-1.024 0-11.093 9.216-22.187 20.48l-20.309 20.651 358.229 358.229 20.139-20.309 20.139-20.139-176.981-179.371zM397.995 244.053c-0.683-0.683-18.603-5.803-39.765-11.605l-38.4-10.411-32.768 33.109 10.752 40.277 10.581 40.277 45.397-45.227c24.917-24.917 44.715-45.739 44.203-46.421zM168.96 743.595c-12.288-5.461-27.477-20.309-35.328-34.475-5.12-9.387-5.632-36.864-5.632-302.080v-291.84l9.557-16.043c5.803-10.069 15.019-19.456 24.064-24.747l14.848-8.704h586.752l15.531 9.899c30.891 19.627 30.208 14.165 30.208 214.528 0 187.733 0.171 185.173-17.237 185.173-20.651 0-20.309 2.389-20.309-181.76-0.171-184.491 0.171-182.101-20.651-189.269-15.531-5.291-541.184-6.144-560.299-0.853-24.747 6.827-23.211-13.312-23.211 302.763v284.501l16.725 16.725h168.619c165.547 0 168.96 0.171 177.664 6.997 10.581 8.363 11.776 20.309 2.731 28.331-8.363 7.68-346.795 8.363-364.032 0.853z" />
</font>
</defs>
</svg>
