<?xml version="1.0" standalone="no"?>
<!DOCTYPE svg PUBLIC "-//W3C//DTD SVG 1.1//EN" "http://www.w3.org/Graphics/SVG/1.1/DTD/svg11.dtd" >
<svg>
<metadata>
Created by FontForge 20090622 at Wed Aug 10 13:51:40 2016
 By deploy user
&#194;&#169; 2008 Microsoft Corporation. All Rights Reserved.
</metadata>
<defs>
<font id="SegoeUI-BoldItalic" horiz-adv-x="0" >
  <font-face 
    font-family="Segoe UI"
    font-weight="700"
    font-style="italic"
    font-stretch="normal"
    units-per-em="2048"
    panose-1="2 11 8 2 4 2 4 9 2 3"
    ascent="1638"
    descent="-410"
    x-height="1024"
    cap-height="1434"
    bbox="-937 -514 2974 2192"
    underline-thickness="119"
    underline-position="-119"
    slope="-12"
    unicode-range="U+000D-U+FFFD"
  />
<missing-glyph horiz-adv-x="1322" 
d="M166 0v1398h990v-1398h-990zM314 148h694v1102h-694v-1102z" />
    <glyph glyph-name=".notdef" horiz-adv-x="1322" 
d="M166 0v1398h990v-1398h-990zM314 148h694v1102h-694v-1102z" />
    <glyph glyph-name="null" unicode="&#xd;" 
 />
    <glyph glyph-name="nonmarkingreturn" horiz-adv-x="100" 
 />
    <glyph glyph-name="space" unicode=" " horiz-adv-x="563" 
 />
    <glyph glyph-name="exclam" unicode="!" horiz-adv-x="709" 
d="M463 446h-256l172 988h332zM465 150q0 -39 -15 -70.5t-40.5 -54.5t-60.5 -35.5t-75 -12.5q-38 0 -70.5 12t-56.5 33t-37.5 49.5t-13.5 61.5q0 39 15 71.5t41 55t61 35t76 12.5q38 0 70 -12t55.5 -33t37 -49.5t13.5 -62.5z" />
    <glyph glyph-name="quotedbl" unicode="&#x22;" horiz-adv-x="1010" 
d="M930 1008h-201l-31 444h263zM535 1008h-203l-29 444h262z" />
    <glyph glyph-name="numbersign" unicode="#" horiz-adv-x="1171" 
d="M1163 889h-184l-55 -248h206l-45 -180h-198l-78 -346h-201l74 346h-229l-74 -346h-201l72 346h-187l37 180h189l53 248h-203l35 180h205l74 356h204l-73 -356h229l76 356h203l-74 -356h184zM545 889l-56 -248h232l55 248h-231z" />
    <glyph glyph-name="dollar" unicode="$" horiz-adv-x="1180" 
d="M1092 1124q-57 29 -127 53.5t-154 36.5l-84 -395q158 -71 240 -170t82 -217q0 -85 -25.5 -163.5t-84 -139t-153.5 -99t-235 -42.5l-43 -197h-143l41 201q-52 4 -102 14.5t-95 23.5t-82.5 26.5t-63.5 25.5l54 252q34 -21 75.5 -39.5t86 -33.5t89.5 -26t87 -16l82 383
q-72 35 -133 75t-104.5 89.5t-68 111t-24.5 138.5q0 87 31 163.5t94 134t158.5 92.5t224.5 38l37 176h145l-39 -182q38 -3 77.5 -10t77.5 -17t71.5 -21t58.5 -22zM584 1196.5q-35 -14.5 -58.5 -38t-35 -53.5t-11.5 -63q0 -58 30.5 -94.5t84.5 -70.5l72 335q-47 -1 -82 -15.5
zM778 395q0 22 -5.5 41t-18 36.5t-33 35t-51.5 35.5l-72 -326q47 2 81 18.5t56 41.5t32.5 56t10.5 62z" />
    <glyph glyph-name="percent" unicode="%" horiz-adv-x="1778" 
d="M1686 420q0 -45 -9.5 -95.5t-30 -99.5t-52 -93.5t-76 -78t-102.5 -53.5t-130 -20q-90 0 -151.5 28.5t-99.5 73t-55 99.5t-17 108q0 43 9 92t29.5 98t52 93.5t77 79t105 55t134.5 20.5t134 -22t99.5 -62t61.5 -96.5t21 -126.5zM428 0h-246l1239 1434h246zM893 1149
q0 -69 -22 -146.5t-70.5 -143.5t-124.5 -109t-184 -43q-90 0 -151.5 29t-99.5 74t-54.5 100t-16.5 108q0 43 9.5 92t29.5 97.5t52 93t77 78.5t105 54.5t135 20.5t133.5 -22t99 -61.5t61.5 -96t21 -125.5zM1470 416q0 24 -5.5 48.5t-18 44t-33 32t-51.5 12.5
q-48 0 -82.5 -26.5t-57 -66t-33.5 -85.5t-11 -86q0 -28 7 -52.5t21 -43t35.5 -29t50.5 -10.5q44 0 77 24t55.5 62t34 84.5t11.5 91.5zM678 1143q0 25 -5.5 50t-18 44.5t-33.5 32t-52 12.5q-48 0 -82.5 -26.5t-57 -66t-33.5 -85.5t-11 -86q0 -28 7 -53t21.5 -44t36 -29.5
t50.5 -10.5q44 0 77 24.5t55.5 62.5t34 84.5t11.5 90.5z" />
    <glyph glyph-name="ampersand" unicode="&#x26;" horiz-adv-x="1641" 
d="M1347 -23q-56 0 -101.5 15t-83.5 41.5t-69.5 62t-60.5 75.5q-38 -30 -91.5 -64t-121.5 -63t-150 -48t-177 -19q-115 0 -206.5 29t-155 82.5t-97.5 128.5t-34 168q0 99 38 174t100.5 131.5t143 96t165.5 68.5q-21 18 -42 43.5t-38 57.5t-27.5 70t-10.5 80q0 84 33 149.5
t94 110.5t147.5 68.5t192.5 23.5q90 0 164 -21t126 -60t80.5 -94t28.5 -123q0 -72 -28 -125.5t-73.5 -92.5t-103.5 -66.5t-119 -49.5q32 -16 68 -48.5t70.5 -74t64.5 -88t51 -91.5q61 56 111 121t85 136.5t54.5 148t19.5 155.5q0 10 -0.5 19t-1.5 17h269q3 -22 3 -45
q0 -74 -19 -147.5t-51 -144.5t-74.5 -137.5t-89.5 -126t-96 -110.5t-95 -91q39 -55 82 -78t95 -23q47 0 88.5 9t85.5 24l-42 -244q-41 -14 -90.5 -22t-110.5 -8zM534 221q101 0 201.5 40.5t187.5 109.5q-54 128 -134.5 216.5t-167.5 132.5q-48 -18 -101 -44.5t-96.5 -63.5
t-72 -86t-28.5 -114q0 -42 15.5 -77t43.5 -60.5t67 -39.5t85 -14zM690 955q33 11 71 25t70 35t53.5 50.5t21.5 71.5q0 49 -35 79.5t-88 30.5q-34 0 -66.5 -9t-57 -28t-39.5 -47t-15 -66q0 -48 25 -83.5t60 -58.5z" />
    <glyph glyph-name="quotesingle" unicode="'" horiz-adv-x="600" 
d="M528 1010h-200l-29 442h262z" />
    <glyph glyph-name="parenleft" unicode="(" horiz-adv-x="758" 
d="M740.5 1181q-97.5 -130 -167 -271.5t-107.5 -297t-38 -329.5q0 -75 8.5 -153t25.5 -155.5t43.5 -151t63.5 -138.5h-245q-42 65 -73.5 143.5t-52.5 161t-31.5 166t-10.5 159.5q0 168 36 322t104 294.5t166 266t222 236.5h272q-118 -123 -215.5 -253z" />
    <glyph glyph-name="parenright" unicode=")" horiz-adv-x="758" 
d="M602 803q0 -168 -36 -322t-104.5 -294t-166.5 -265.5t-221 -236.5h-273q118 122 215.5 251.5t167.5 271t108 297t38 329.5q0 75 -8.5 153t-25.5 155.5t-44 151.5t-64 140h246q42 -65 73.5 -143.5t52.5 -161.5t31.5 -166.5t10.5 -159.5z" />
    <glyph glyph-name="asterisk" unicode="*" horiz-adv-x="932" 
d="M682 1016l199 -211l-185 -125l-137 254l-137 -254l-182 125l198 211l-274 37l72 202l249 -108l-43 287h234l-43 -287l252 108l71 -202z" />
    <glyph glyph-name="plus" unicode="+" horiz-adv-x="1450" 
d="M846 485v-385h-203v385h-385v203h385v385h203v-385h385v-203h-385z" />
    <glyph glyph-name="comma" unicode="," horiz-adv-x="555" 
d="M150 -254h-259l232 506h297z" />
    <glyph glyph-name="hyphen" unicode="-" horiz-adv-x="827" 
d="M666 436h-547l47 221h547z" />
    <glyph glyph-name="hyphen" unicode="&#x2010;" horiz-adv-x="827" 
d="M666 436h-547l47 221h547z" />
    <glyph glyph-name="period" unicode="." horiz-adv-x="555" 
d="M383 145q0 -38 -15 -69.5t-40.5 -54t-60 -34.5t-74.5 -12q-39 0 -71.5 11.5t-56.5 32.5t-37.5 49.5t-13.5 62.5q0 38 15 70t41 54.5t61 35t76 12.5q38 0 70.5 -12t56 -33t36.5 -50t13 -63z" />
    <glyph glyph-name="slash" unicode="/" horiz-adv-x="909" 
d="M92 -238h-317l1052 1672h318z" />
    <glyph glyph-name="zero" unicode="0" horiz-adv-x="1180" 
d="M1178 1004q0 -115 -18 -237.5t-54 -239t-90.5 -218.5t-128.5 -176q-78 -78 -170 -118t-213 -40q-90 0 -167.5 30.5t-134.5 91.5t-89.5 153t-32.5 215q0 106 18 221t53.5 225t89 208t124.5 171q81 85 177.5 126.5t221.5 41.5q105 0 183 -35.5t129 -97t76.5 -144
t25.5 -177.5zM868 1016q0 103 -34 152t-91 49q-72 0 -135 -66q-32 -33 -60.5 -86t-53 -116.5t-44 -134t-33 -139t-21 -131.5t-7.5 -112q0 -106 38.5 -159.5t98.5 -53.5q34 0 66.5 15t60.5 47q28 30 54.5 80t50.5 112t44 132t35 141.5t23 141t8 128.5z" />
    <glyph glyph-name="one" unicode="1" horiz-adv-x="1180" 
d="M39 0l55 250h295l191 893l-320 -66l55 256l648 125l-256 -1208h292l-55 -250h-905z" />
    <glyph glyph-name="two" unicode="2" horiz-adv-x="1180" 
d="M1167 1096q0 -86 -27.5 -160t-79 -142t-125 -133t-165.5 -133l-354 -262v-4h571l-57 -262h-944l55 256l514 406q76 59 131.5 107.5t92 93t54 87t17.5 90.5q0 33 -11 63t-35.5 53t-62.5 36.5t-92 13.5q-50 0 -100 -10.5t-97.5 -28t-91 -40.5t-81.5 -48l63 289
q27 14 67.5 29.5t91 29t110 22.5t124.5 9q108 0 189 -26.5t135 -74.5t81 -114.5t27 -146.5z" />
    <glyph glyph-name="three" unicode="3" horiz-adv-x="1180" 
d="M1128 1118q0 -67 -23 -130t-69.5 -114.5t-116 -88.5t-163.5 -52v-4q63 -12 112 -39t82 -66.5t50.5 -91t17.5 -112.5q0 -84 -32 -164t-102.5 -142.5t-184 -100.5t-277.5 -38q-61 0 -117.5 7t-106 18.5t-90.5 26.5t-73 30l55 256q24 -15 58.5 -32t76.5 -31.5t90 -23.5
t99 -9q84 0 139.5 19t88.5 49t46.5 68t13.5 75q0 42 -15.5 76.5t-49.5 59t-86.5 37.5t-126.5 13h-123l51 242h152q71 0 127.5 14t96.5 40.5t61.5 65.5t21.5 89q0 32 -11 59.5t-35 48t-62 32.5t-93 12q-94 0 -171.5 -23t-133.5 -49l55 256q25 8 58.5 17.5t77.5 18.5t98 15
t119 6q107 0 185 -26.5t129 -72t76 -107.5t25 -134z" />
    <glyph glyph-name="four" unicode="4" horiz-adv-x="1180" 
d="M944 530h172l-47 -225h-172l-63 -305h-293l65 305h-624l41 199l788 930h326zM776 1108l-32.5 -51.5t-43.5 -59.5l-385 -467h338l97 441l16 71.5t16 65.5h-6z" />
    <glyph glyph-name="five" unicode="5" horiz-adv-x="1180" 
d="M1122 1176h-526l-61 -287q18 2 32.5 3t34.5 1q113 0 195 -31t135.5 -84.5t79.5 -126t26 -155.5q0 -54 -14 -114t-44.5 -117.5t-78.5 -110t-117 -92.5t-160 -63.5t-206 -23.5q-57 0 -112 6t-104 15.5t-88 22.5t-65 28l55 256q25 -16 61 -31.5t78 -27.5t86 -19.5t85 -7.5
q87 0 146 24t95 60t52 78.5t16 79.5q0 45 -13.5 81t-45 60.5t-81.5 37.5t-124 13q-31 0 -66 -1.5t-68.5 -3.5t-64 -5t-51.5 -6l172 799h797z" />
    <glyph glyph-name="six" unicode="6" horiz-adv-x="1180" 
d="M1130 1155q-43 26 -104.5 44t-136.5 18q-72 0 -137.5 -25t-114.5 -64q-37 -30 -69.5 -72t-59 -89.5t-45.5 -98.5t-31 -100h4q26 34 60 62t74 48.5t85 32t93 11.5q83 0 147.5 -28t109 -79.5t68 -125t23.5 -165.5q0 -98 -33.5 -196t-100 -176t-164.5 -126.5t-227 -48.5
q-106 0 -192.5 34.5t-148.5 102.5t-96 168.5t-34 231.5q0 122 23.5 237t67.5 217.5t108.5 188.5t146.5 150q97 74 214.5 112.5t244.5 38.5q99 0 170 -14.5t111 -30.5zM793 496q0 38 -9 73t-29 61.5t-52.5 42t-79.5 15.5q-50 0 -90 -21t-67.5 -56.5t-42.5 -81.5t-15 -97
q0 -100 47.5 -154.5t126.5 -54.5q51 0 90 24t66 63t41 88t14 98z" />
    <glyph glyph-name="seven" unicode="7" horiz-adv-x="1180" 
d="M475 0h-354l753 1176h-657l55 258h1002l-35 -162z" />
    <glyph glyph-name="eight" unicode="8" horiz-adv-x="1180" 
d="M1190 1106q0 -143 -90.5 -238.5t-253.5 -136.5q106 -51 167.5 -135.5t61.5 -200.5q0 -92 -40 -169.5t-113 -134t-176.5 -88.5t-231.5 -32q-111 0 -199.5 27.5t-149.5 77.5t-93.5 120t-32.5 156q0 155 96.5 254.5t274.5 151.5q-42 27 -74 62t-53.5 74t-32 81t-10.5 84
q0 86 34 159t99.5 126.5t160.5 83.5t216 30q110 0 192 -29t137.5 -78t83 -112.5t27.5 -132.5zM891 1083q0 32 -11 59t-32 46.5t-50.5 31t-66.5 11.5q-93 0 -142.5 -50.5t-49.5 -131.5q0 -59 29.5 -108t86.5 -89q112 31 174 86.5t62 144.5zM778 397q0 35 -12.5 68.5t-36 63.5
t-56 56t-71.5 44q-136 -34 -202 -104t-66 -156q0 -27 11 -57t35 -55t63 -41.5t94 -16.5q56 0 100.5 15t76 41.5t48 62.5t16.5 79z" />
    <glyph glyph-name="nine" unicode="9" horiz-adv-x="1180" 
d="M1155 922q0 -103 -19 -212t-59.5 -212.5t-103.5 -196.5t-150 -164q-50 -41 -102.5 -71.5t-110.5 -50t-123.5 -29t-140.5 -9.5q-94 0 -166 14.5t-110 31.5l45 256q19 -11 45.5 -21.5t58 -19t67.5 -14t74 -5.5q78 0 142 22t116 62q75 59 126 153t79 210h-4
q-60 -76 -134.5 -116t-168.5 -40q-91 0 -158.5 33t-112.5 88.5t-67 128t-22 151.5q0 58 12.5 121t40 124t69.5 116t101.5 97t136.5 66.5t174 24.5q114 0 200.5 -40.5t145.5 -112.5t89 -170.5t30 -214.5zM852 999q0 39 -11.5 77.5t-33 68.5t-53.5 48.5t-74 18.5
q-54 0 -94 -24.5t-67 -63.5t-40.5 -87.5t-13.5 -96.5q0 -35 8.5 -70.5t28 -64t51.5 -46.5t78 -18q52 0 93 21t69.5 56t43.5 82t15 99z" />
    <glyph glyph-name="colon" unicode=":" horiz-adv-x="555" 
d="M537 879q0 -39 -15 -70.5t-41.5 -54t-61.5 -35t-75 -12.5q-38 0 -70.5 12t-56 32.5t-36.5 49t-13 61.5q0 39 14.5 71.5t40 55t61 35t76.5 12.5q38 0 70.5 -12t56 -33t37 -49.5t13.5 -62.5zM383 145q0 -38 -15 -69.5t-40.5 -54t-60 -34.5t-74.5 -12q-39 0 -71.5 11.5
t-56.5 32.5t-37.5 49.5t-13.5 62.5q0 38 15 70t41 54.5t61 35t76 12.5q38 0 70.5 -12t56 -33t36.5 -50t13 -63z" />
    <glyph glyph-name="semicolon" unicode=";" horiz-adv-x="555" 
d="M537 879q0 -39 -15 -70.5t-41.5 -54t-61.5 -35t-75 -12.5q-38 0 -70.5 12t-56 32.5t-36.5 49t-13 61.5q0 39 14.5 71.5t40 55t61 35t76.5 12.5q38 0 70.5 -12t56 -33t37 -49.5t13.5 -62.5zM119 -254h-256l229 506h299z" />
    <glyph glyph-name="less" unicode="&#x3c;" horiz-adv-x="1450" 
d="M229 504v164l934 445v-238l-665 -287v-4l665 -268v-235z" />
    <glyph glyph-name="equal" unicode="=" horiz-adv-x="1450" 
d="M258 700v205h973v-205h-973zM258 266v203h973v-203h-973z" />
    <glyph glyph-name="greater" unicode="&#x3e;" horiz-adv-x="1450" 
d="M307 81v237l668 267v4l-668 286v238l936 -444v-162z" />
    <glyph glyph-name="question" unicode="?" horiz-adv-x="920" 
d="M995 1133q0 -58 -16 -112t-50.5 -105.5t-89.5 -101t-132 -97.5q-51 -31 -85.5 -61t-57 -63.5t-36 -72t-22.5 -86.5h-260q13 65 29 121t41.5 104.5t62.5 90.5t92 79q54 38 93.5 69.5t65 60t38 57t12.5 59.5q0 29 -11 54t-32.5 44t-54 30t-74.5 11q-82 0 -161 -24.5
t-144 -65.5l57 277q31 14 69.5 26.5t81.5 22t88.5 15t90.5 5.5q113 0 190.5 -29.5t125 -77t68.5 -108t21 -122.5zM516 150q0 -39 -15 -70.5t-40.5 -54.5t-60.5 -35.5t-76 -12.5q-38 0 -70.5 12t-56 33t-37 49.5t-13.5 61.5q0 39 14.5 71.5t40.5 55t61 35t77 12.5
q38 0 70 -12t55.5 -33t37 -49.5t13.5 -62.5z" />
    <glyph glyph-name="at" unicode="@" horiz-adv-x="1954" 
d="M1860 811q0 -79 -15.5 -156t-45.5 -147.5t-75 -130.5t-104 -103.5t-132.5 -68.5t-160.5 -25q-61 0 -104 15t-69 38t-38 50t-12 51q0 11 0.5 16.5t3.5 18.5h-6q-53 -90 -121.5 -139.5t-159.5 -49.5q-62 0 -110 25.5t-80.5 70t-49 104.5t-16.5 130q0 67 15 135t44 130.5
t70.5 116.5t95.5 94.5t118.5 63.5t138.5 23q41 0 72.5 -9.5t53.5 -25t36 -35t20 -38.5h4l24 90h226l-27 -92.5l-33.5 -119l-35 -128.5t-31.5 -122t-22.5 -100t-8.5 -61q0 -42 17 -58t51 -16q48 0 94 35t82 94t58 138.5t22 167.5q0 90 -28.5 176.5t-93 153.5t-170 108
t-259.5 41q-152 0 -283.5 -53t-228 -150t-152 -232.5t-55.5 -299.5q0 -115 32.5 -215t103 -174t182.5 -116t270 -42q84 0 160.5 9t139 22.5t108.5 29t71 27.5l-35 -193q-22 -10 -66.5 -22.5t-106 -24t-137 -19t-159.5 -7.5q-191 0 -338 51.5t-247 146t-151.5 227
t-51.5 295.5q0 129 31 247.5t90 221t143.5 185.5t191.5 142.5t234.5 91.5t271.5 32q191 0 331.5 -50.5t232 -138t136 -204t44.5 -248.5zM1171 784q0 57 -30.5 87t-79.5 30q-58 0 -106 -35t-82.5 -90t-53 -123t-18.5 -135q0 -77 30 -118.5t82 -41.5q42 0 80.5 27.5t70.5 74
t57 109.5t40 133q5 22 7.5 43t2.5 39z" />
    <glyph glyph-name="A" unicode="A" horiz-adv-x="1440" 
d="M985 0l-41 319h-514l-168 -319h-364l827 1434h385l205 -1434h-330zM868 1051q-1 16 -1.5 35.5t0 37.5t1.5 32.5t2 21.5h-6q-2 -9 -7 -23t-11.5 -30.5t-15 -34.5t-17.5 -35l-262 -488h369z" />
    <glyph glyph-name="B" unicode="B" horiz-adv-x="1327" 
d="M1296 1110q0 -67 -22 -125t-65.5 -104.5t-107.5 -79.5t-149 -49v-4q68 -10 119 -36.5t85.5 -65.5t51.5 -88t17 -105q0 -97 -38 -179.5t-114 -143.5t-189.5 -95.5t-265.5 -34.5h-569l305 1434h508q117 0 199.5 -24.5t134.5 -68t76 -103t24 -128.5zM956 1047
q0 35 -10.5 62.5t-33.5 46.5t-60 29.5t-90 10.5h-133l-74 -340h152q58 0 104 13.5t78.5 38.5t49.5 60.5t17 78.5zM883 451q0 75 -52 120t-155 45h-170l-82 -378h180q74 0 127 16.5t86.5 45.5t49.5 67.5t16 83.5z" />
    <glyph glyph-name="C" unicode="C" horiz-adv-x="1300" 
d="M1313 1087q-30 16 -64.5 32t-75.5 28.5t-88.5 20.5t-103.5 8q-130 0 -229.5 -44.5t-167.5 -119.5t-103 -174t-35 -209q0 -91 27 -161t77 -117.5t120 -72t157 -24.5q55 0 103 7.5t91 20t81.5 28.5t73.5 34l-68 -305q-74 -31 -163.5 -47.5t-201.5 -16.5q-150 0 -269 44.5
t-201 126.5t-125.5 196.5t-43.5 255.5q0 113 24 220.5t72.5 203t122 175.5t173 138t226 90.5t279.5 32.5q58 0 112 -6t103 -15.5t90.5 -21t73.5 -22.5z" />
    <glyph glyph-name="D" unicode="D" horiz-adv-x="1542" 
d="M1499 854q0 -113 -23 -220.5t-69.5 -202.5t-117.5 -174t-167.5 -136t-219.5 -89t-273 -32h-580l305 1434h504q158 0 277.5 -43t200.5 -119.5t122 -183t41 -234.5zM1157 829q0 80 -22.5 143.5t-69 107.5t-117.5 67.5t-168 23.5h-157l-193 -909h197q122 0 220 40.5t167 115
t106 179t37 232.5z" />
    <glyph glyph-name="E" unicode="E" horiz-adv-x="1085" 
d="M1124 1171h-501l-68 -323h467l-57 -264h-465l-70 -322h535l-56 -262h-860l305 1434h826z" />
    <glyph glyph-name="F" unicode="F" horiz-adv-x="1067" 
d="M1128 1167h-505l-74 -346h465l-58 -266h-464l-117 -555h-326l305 1434h830z" />
    <glyph glyph-name="G" unicode="G" horiz-adv-x="1452" 
d="M1370 1081q-31 21 -72 40.5t-89.5 34t-103 23.5t-112.5 9q-125 0 -225.5 -40.5t-171 -114t-108 -177t-37.5 -229.5q0 -91 25 -163t71.5 -121t112.5 -75t147 -26q54 0 89.5 6.5t64.5 15.5l61 291h-291l55 258h613l-154 -727q-43 -21 -94 -40.5t-111 -35.5t-129 -25.5
t-149 -9.5q-154 0 -275.5 46t-204.5 130t-127 201.5t-44 259.5q0 112 25 218.5t74.5 200.5t124 172.5t174 135t224.5 88t275 31.5q68 0 129.5 -7.5t115.5 -19.5t99.5 -26.5t81.5 -28.5z" />
    <glyph glyph-name="H" unicode="H" horiz-adv-x="1565" 
d="M1290 0h-325l122 580h-589l-123 -580h-326l305 1434h326l-123 -572h590l123 572h325z" />
    <glyph glyph-name="I" unicode="I" horiz-adv-x="649" 
d="M375 0h-326l303 1434h326z" />
    <glyph glyph-name="J" unicode="J" horiz-adv-x="907" 
d="M762 573q-29 -138 -80 -248.5t-128 -188.5t-181.5 -119.5t-241.5 -41.5q-24 0 -55 4t-61.5 10t-57.5 14t-43 15l59 299q15 -12 36 -23.5t44.5 -20t47.5 -14t46 -5.5q113 0 184.5 79.5t106.5 248.5l183 852h325z" />
    <glyph glyph-name="K" unicode="K" horiz-adv-x="1333" 
d="M1434 1348.5l-115.5 -123l-136 -141l-136 -141l-115.5 -123t-75 -85.5q13 -33 43 -91.5l68.5 -129l82 -147l82 -147l68.5 -129t43 -91.5h-393q-9 26 -32 75l-53.5 109l-64.5 125.5l-64.5 125.5l-54 108.5t-32.5 74.5q-8 17 -15 38.5t-10 33.5h-4l-145 -690h-326l305 1434
h326l-141 -666h4q11 15 25.5 33l23.5 30q20 25 61.5 72.5l93 106l108.5 122.5l108.5 122.5l92 106t58.5 73.5h395q-24 -30 -75 -85.5z" />
    <glyph glyph-name="L" unicode="L" horiz-adv-x="1049" 
d="M905 0h-856l305 1434h326l-248 -1168h529z" />
    <glyph glyph-name="M" unicode="M" horiz-adv-x="1781" 
d="M1505 0h-290l182 858q30 137 78 307h-8q-14 -32 -29.5 -64l-30.5 -60.5l-28 -51t-23 -36.5l-384 -523h-226l-149 513q-5 15 -9.5 47.5t-4.5 67.5v107h-9q-14 -94 -27.5 -173t-24.5 -133l-183 -859h-291l305 1434h384l147 -498q7 -24 13 -51.5t10 -55t6 -53t2 -45.5h5
q11 22 23.5 49.5l26 56t28.5 55t30 46.5l366 496h416z" />
    <glyph glyph-name="N" unicode="N" horiz-adv-x="1636" 
d="M1362 0h-295l-449 911q-6 12 -13 28l-14 32.5l-13 31.5t-9 27h-6l-11 -83t-17 -91l-183 -856h-303l303 1434h320l430 -877l12.5 -26.5l15 -32t14 -32.5t9.5 -28h4q1 15 3 33.5t5 37.5t6.5 37t6.5 32l182 856h305z" />
    <glyph glyph-name="O" unicode="O" horiz-adv-x="1554" 
d="M1511 842q0 -86 -15 -173t-44.5 -168.5t-74 -156.5t-103.5 -137q-50 -53 -109 -96t-128.5 -73t-150.5 -46.5t-175 -16.5q-142 0 -253.5 47t-188.5 129.5t-117.5 195.5t-40.5 245q0 93 16 183.5t48.5 174t81 159t112.5 138.5q50 48 108 86.5t125 66.5t144 43t165 15
q133 0 243.5 -42t189.5 -121.5t123 -194t44 -258.5zM1169 831q0 81 -20.5 145t-58.5 108.5t-92.5 68t-123.5 23.5q-80 0 -152 -37t-128 -103q-34 -40 -60 -92t-44 -110t-27.5 -118.5t-9.5 -119.5q0 -81 20.5 -145t58.5 -107.5t91.5 -66.5t119.5 -23q82 0 156.5 36t130.5 107
q35 42 61 94.5t43 109.5t26 116t9 114z" />
    <glyph glyph-name="P" unicode="P" horiz-adv-x="1290" 
d="M1317 1026q0 -106 -37 -202.5t-115 -169.5t-198 -116.5t-287 -43.5h-201l-104 -494h-326l305 1434h492q122 0 211 -31.5t146.5 -86t85.5 -129t28 -161.5zM975 1004q0 83 -56 132.5t-165 49.5h-127l-95 -447h148q77 0 132.5 21.5t91.5 58t53.5 84.5t17.5 101z" />
    <glyph glyph-name="Q" unicode="Q" horiz-adv-x="1554" 
d="M1169 829q0 81 -19.5 145t-57 109t-91.5 69t-122 24q-81 0 -154 -35.5t-127 -100.5q-36 -43 -63 -95t-45.5 -109.5t-27.5 -118.5t-9 -121q0 -81 20.5 -145t58.5 -107.5t91.5 -66.5t119.5 -23q85 0 160 37.5t127 103.5q34 42 60 94t43.5 108t26.5 115.5t9 116.5zM989 18
q40 -53 78 -87t80 -54t90 -28t107 -8q32 0 74.5 6.5t74.5 18.5l-58 -272q-34 -9 -92 -18t-139 -9q-98 0 -173.5 32t-138.5 87.5t-119 130t-114 160.5q-133 9 -235 60.5t-171.5 133.5t-105.5 189.5t-36 229.5q0 93 16 183.5t48 174.5t80.5 159.5t113.5 139.5q48 45 104 84
t123 67t145.5 44t171.5 16q134 0 244 -42.5t189 -122.5t122 -195t43 -260q0 -128 -33.5 -256t-99.5 -239t-163.5 -196.5t-225.5 -128.5z" />
    <glyph glyph-name="R" unicode="R" horiz-adv-x="1311" 
d="M1305 1069q0 -91 -33 -164.5t-90 -127.5t-133.5 -88t-163.5 -46v-4q62 -20 106 -76t66 -149l100 -414h-346l-78 369q-18 89 -63 134.5t-123 45.5h-55l-117 -549h-326l305 1434h490q125 0 213 -29.5t143 -80t80 -116.5t25 -139zM961 1016q0 83 -49 129.5t-148 46.5h-135
l-86 -399h131q74 0 128 18.5t89 49t52.5 71t17.5 84.5z" />
    <glyph glyph-name="S" unicode="S" horiz-adv-x="1100" 
d="M1067 1102q-31 19 -68.5 37.5t-80 32.5t-89.5 23t-98 9q-57 0 -96 -15.5t-62 -38.5t-33 -49.5t-10 -49.5q0 -33 10.5 -60.5t33 -53t59 -52t88.5 -58.5q68 -42 120.5 -84.5t89.5 -91t56 -105.5t19 -128q0 -41 -9.5 -90t-32.5 -98.5t-63.5 -95.5t-101.5 -81t-146.5 -56.5
t-199.5 -21.5q-64 0 -124.5 8.5t-115 23t-101.5 32.5t-83 37l55 284q37 -27 80.5 -51t91 -42t98.5 -28t103 -10q57 0 97 12.5t65 34.5t36 51t11 62t-10.5 59.5t-34.5 51t-63.5 51t-96.5 59.5q-61 34 -111 73.5t-86 88t-56 108t-20 132.5q0 83 31 163t97 143t168.5 101.5
t244.5 38.5q59 0 114 -6.5t105 -17.5t94 -25t80 -29z" />
    <glyph glyph-name="T" unicode="T" horiz-adv-x="1202" 
d="M1303 1171h-404l-248 -1171h-325l247 1171h-409l57 263h1139z" />
    <glyph glyph-name="U" unicode="U" horiz-adv-x="1481" 
d="M1343 584q-30 -141 -77 -254t-124.5 -192t-192.5 -121t-281 -42q-120 0 -216 33t-163 95.5t-103 152t-36 203.5q0 52 8 114.5t20 116.5l160 744h326l-162 -746q-11 -53 -20 -106t-9 -90q0 -58 17.5 -102.5t49 -74.5t74 -45.5t91.5 -15.5q57 0 106 17t88 56t69 103.5
t50 159.5l182 844h326z" />
    <glyph glyph-name="V" unicode="V" horiz-adv-x="1366" 
d="M739 0h-356l-184 1434h331l97 -992q3 -35 3.5 -71.5t-5.5 -67.5h8q9 29 23.5 65t35.5 78l498 988h356z" />
    <glyph glyph-name="W" unicode="W" horiz-adv-x="2064" 
d="M1550 0h-344l-61 930q-1 15 0.5 36t4 43t5.5 42.5t6 35.5h-4q-5 -16 -12.5 -37l-15.5 -43l-16 -42t-15 -35l-455 -930h-369l-73 1434h340l10 -951q1 -17 -0.5 -39t-4.5 -44t-6 -41.5l-5 -32.5h6q4 15 11 35.5t15.5 43t18 44l16.5 36.5l461 949h342l47 -961
q1 -14 0.5 -32.5t-1.5 -38.5t-3 -39.5t-4 -34.5h4q4 14 10.5 34t14 41l15 41l13.5 35l397 955h338z" />
    <glyph glyph-name="X" unicode="X" horiz-adv-x="1341" 
d="M928 709l284 -709h-366l-144 455q-4 11 -6.5 26t-4 30.5t-2.5 30t-1 23.5h-4q-8 -17 -20.5 -48t-30.5 -56l-344 -461h-400l615 739l-277 695h377l127 -441q3 -12 5.5 -27.5t4 -31.5t2 -30t0.5 -23h5l8 20.5t12 27.5t14.5 29.5t16.5 26.5l342 449h377z" />
    <glyph glyph-name="Y" unicode="Y" horiz-adv-x="1245" 
d="M776 520l-108 -520h-326l109 514l-258 920h350l114 -545q8 -34 9.5 -63t3.5 -52h2q11 28 24.5 57t28.5 54l350 549h363z" />
    <glyph glyph-name="Z" unicode="Z" horiz-adv-x="1243" 
d="M1350 1253l-910 -991h701l-56 -262h-1155l39 186l922 985h-660l56 263h1102z" />
    <glyph glyph-name="bracketleft" unicode="[" horiz-adv-x="758" 
d="M858 1233h-219l-289 -1358h219l-43 -201h-473l373 1760h473z" />
    <glyph glyph-name="backslash" unicode="\" horiz-adv-x="895" 
d="M516 -238l-346 1672h274l342 -1672h-270z" />
    <glyph glyph-name="bracketright" unicode="]" horiz-adv-x="758" 
d="M332 -326h-471l43 201h215l289 1358h-218l41 201h474z" />
    <glyph glyph-name="asciicircum" unicode="^" horiz-adv-x="1450" 
d="M1053 610l-287 586h-6l-268 -586h-242l430 848h162l452 -848h-241z" />
    <glyph glyph-name="underscore" unicode="_" horiz-adv-x="850" 
d="M-176 -297l24 119h850l-24 -119h-850z" />
    <glyph glyph-name="grave" unicode="`" horiz-adv-x="899" 
d="M551 1186l-260 325h264l209 -325h-213z" />
    <glyph glyph-name="a" unicode="a" horiz-adv-x="1214" 
d="M1044 338q-7 -31 -13.5 -75t-12 -91.5t-9 -93t-3.5 -78.5h-320q0 15 1.5 38.5t3.5 48t4.5 48t4.5 39.5h-4q-29 -39 -60 -75t-69 -63.5t-84.5 -44t-107.5 -16.5q-75 0 -133.5 27t-98.5 78t-61 124.5t-21 166.5q0 47 10.5 115.5t38 144t76.5 150t125.5 134.5t185 97
t255.5 37q57 0 114.5 -4.5t113 -12t107.5 -17.5t97 -20zM829 817q-23 5 -51 7.5t-53 2.5q-69 0 -121 -23t-90.5 -60t-64.5 -84t-41.5 -95.5t-22 -94.5t-6.5 -81q0 -37 7.5 -68.5t23.5 -54.5t39.5 -36t54.5 -13q57 0 101.5 33t78 84.5t56 116t36.5 127.5l53 239v0z" />
    <glyph glyph-name="b" unicode="b" horiz-adv-x="1214" 
d="M1153 666q0 -60 -12 -134.5t-41.5 -151.5t-79.5 -149.5t-125.5 -129.5t-179.5 -91.5t-242 -34.5q-58 0 -117.5 7.5t-116 22t-108.5 35t-94 46.5l303 1430h319l-96 -451q-4 -21 -10.5 -48l-13 -54l-12.5 -51.5t-11 -41.5h8q29 39 62 72t72.5 57t85.5 37t100 13
q68 0 124.5 -24t97.5 -72t64 -120t23 -167zM836 631q0 81 -32 128.5t-104 47.5q-48 0 -89.5 -28t-75 -74.5t-58.5 -106.5t-39 -125l-53 -250q22 -11 57.5 -18.5t75.5 -7.5q51 0 94 18.5t78.5 51t62.5 75t45.5 91t28 99.5t9.5 99z" />
    <glyph glyph-name="c" unicode="c" horiz-adv-x="946" 
d="M901 743q-34 26 -88 45t-117 19q-73 0 -132 -34t-100 -88t-63 -121t-22 -132q0 -103 48 -159t144 -56q30 0 62.5 6t64.5 16.5t61.5 23.5t53.5 28l-49 -242q-68 -35 -145 -54.5t-154 -19.5q-100 0 -175.5 31t-126.5 87t-76.5 133.5t-25.5 170.5q0 86 19.5 167.5
t56.5 153.5t91.5 133t125 105t156 68.5t184.5 24.5q46 0 87 -5.5t75 -14t60 -19t42 -19.5z" />
    <glyph glyph-name="d" unicode="d" horiz-adv-x="1214" 
d="M1044 338q-7 -31 -13.5 -75t-12 -91.5t-9 -93t-3.5 -78.5h-320q0 14 1.5 37.5t4 48.5l5 48.5t3.5 37.5h-4q-31 -44 -64.5 -80t-72 -62t-83.5 -40.5t-99 -14.5q-74 0 -132.5 26t-99.5 75.5t-62.5 123t-21.5 167.5q0 135 45 258.5t130.5 217.5t208.5 150t280 56
q40 0 81.5 -4t67.5 -9l103 480h315zM829 815q-23 6 -50.5 9t-53.5 3q-69 0 -121 -23t-90.5 -60.5t-64.5 -85t-41.5 -96t-22 -94t-6.5 -79.5q0 -37 8 -68.5t23.5 -54.5t40 -36t57.5 -13q55 0 98.5 32.5t77 85t56.5 118t38 131.5l51 231v0z" />
    <glyph glyph-name="e" unicode="e" horiz-adv-x="1065" 
d="M1051 760q0 -79 -33.5 -145t-112 -114t-208.5 -75.5t-324 -30.5q-2 -6 -2 -10.5v-9.5q0 -31 10 -62t34.5 -56t64.5 -40.5t100 -15.5q36 0 78.5 6.5t86.5 19t87.5 30t80.5 38.5l-49 -236q-31 -16 -71 -31t-86.5 -27t-99 -19t-107.5 -7q-116 0 -199 34t-136.5 91.5
t-78.5 134.5t-25 164q0 131 43.5 249t124 207t194 141.5t253.5 52.5q101 0 172 -24t116 -64.5t66 -92.5t21 -108zM750 756q0 37 -27.5 61.5t-77.5 24.5q-44 0 -84.5 -19t-74 -52.5t-57.5 -80t-36 -100.5q180 -2 268.5 41t88.5 125z" />
    <glyph glyph-name="f" unicode="f" horiz-adv-x="768" 
d="M940 1270q-28 11 -61.5 19.5t-65.5 8.5q-71 0 -109 -39t-57 -122l-24 -113h233l-49 -233h-238l-243 -1131h-316l242 1131h-174l51 233h172l33 147q42 187 156.5 278t310.5 91q51 0 102.5 -8t85.5 -19z" />
    <glyph glyph-name="g" unicode="g" horiz-adv-x="1214" 
d="M999 123q-28 -134 -75 -245t-127 -190.5t-201 -124t-297 -44.5q-97 0 -179 20.5t-153 54.5l56 254q63 -42 138 -69t158 -27q78 0 136.5 21t101 62t70.5 101.5t45 139.5l18 90h-4q-26 -39 -57 -73.5t-68.5 -60.5t-83 -41.5t-102.5 -15.5q-78 0 -136.5 28.5t-98 79.5
t-59.5 122t-20 157t18.5 170.5t55.5 161t93 141.5t130.5 112.5t167.5 74.5t205 27q62 0 123.5 -4.5t120 -12t111.5 -17t98 -18.5zM775.5 824.5q-30.5 2.5 -64.5 2.5q-69 0 -129.5 -34t-105.5 -93t-71 -139t-26 -172q0 -37 7.5 -68.5t23.5 -54.5t39.5 -36t54.5 -13
q40 0 73.5 16t61 43.5t49 63.5t38.5 76t29.5 81t20.5 78l53 242q-23 5 -53.5 7.5z" />
    <glyph glyph-name="h" unicode="h" horiz-adv-x="1225" 
d="M1151 780q0 -15 -3 -40t-7.5 -52t-9.5 -52.5t-9 -43.5l-125 -592h-317l123 584l12 66t6 52q0 50 -25.5 77.5t-74.5 27.5q-39 0 -82.5 -24.5t-82.5 -65.5t-70 -96t-44 -117l-106 -504h-320l322 1516h319l-147 -689h4q37 48 81.5 88.5t94 70t102 46.5t103.5 17
q125 0 190.5 -69.5t65.5 -199.5z" />
    <glyph glyph-name="i" unicode="i" horiz-adv-x="650" 
d="M639 1354q0 -39 -15 -70t-40.5 -53.5t-60 -34.5t-74.5 -12q-38 0 -70.5 11.5t-56 32t-37 48.5t-13.5 61q0 39 14.5 70t40 53.5t60.5 34.5t76 12q38 0 70 -11.5t55.5 -32t37 -48.5t13.5 -61zM535 9q-18 -5 -41.5 -10t-50 -9.5t-55 -7t-56.5 -2.5q-67 0 -114.5 17.5
t-78.5 49t-45.5 75t-14.5 95.5q0 22 2.5 49t6.5 56.5t9.5 60t11.5 58.5q4 17 13.5 62.5l22 104.5l26.5 124.5l26.5 124.5l22 104.5t13.5 62.5h320l-122 -576q-8 -35 -17 -78.5t-9 -75.5q0 -38 24 -53t55 -15q26 0 52.5 5.5t48.5 14.5l-25 -118.5z" />
    <glyph glyph-name="j" unicode="j" horiz-adv-x="538" 
d="M639 1354q0 -39 -15 -70t-40.5 -53.5t-60 -34.5t-74.5 -12q-38 0 -70.5 11.5t-56 32t-37 48.5t-13.5 61q0 39 14.5 70t40 53.5t60.5 34.5t76 12q38 0 70 -11.5t55.5 -32t37 -48.5t13.5 -61zM346 53q-23 -108 -61.5 -205t-101 -170t-152.5 -116t-215 -43q-44 0 -88 9
t-72 23l51 242q9 -6 21.5 -12t27 -10.5t29.5 -7.5t27 -3q75 0 127 61t81 199l213 1004h320z" />
    <glyph glyph-name="k" unicode="k" horiz-adv-x="1151" 
d="M764 541l264 -541h-352l-225 532h-5l-112 -532h-318l322 1516h319l-200 -936h4l407 444h375z" />
    <glyph glyph-name="l" unicode="l" horiz-adv-x="650" 
d="M535 9q-18 -5 -41.5 -10t-50 -9.5t-55 -7t-56.5 -2.5q-67 0 -114.5 17.5t-78.5 49t-45.5 75t-14.5 95.5q0 22 2.5 49t6.5 56.5t9.5 60t11.5 58.5q3 13 13.5 63.5l26.5 124.5l35 164.5l39.5 185l39.5 185l35 164.5l26.5 124.5t13.5 63.5h320l-227 -1068q-8 -35 -17 -78.5
t-9 -75.5q0 -38 24 -53t55 -15q26 0 52.5 5.5t48.5 14.5l-25 -118.5z" />
    <glyph glyph-name="m" unicode="m" horiz-adv-x="1866" 
d="M1792 780q0 -15 -3 -40t-7.5 -52t-9.5 -52.5t-9 -43.5l-125 -592h-317l125 584l12 66t6 52q0 50 -24 77.5t-74 27.5q-38 0 -81 -26t-81.5 -68t-68 -96t-41.5 -111l-105 -506h-319l125 584l12 66t6 52q0 50 -24.5 77.5t-73.5 27.5q-39 0 -82 -26t-81 -68.5t-67 -96.5
t-41 -110l-108 -506h-320l152 702l18 92.5t16 89t12.5 79t8.5 61.5h312l-6.5 -58.5l-7 -58.5t-6.5 -49.5t-5 -30.5h4q37 48 80.5 88.5t91.5 70t99 46.5t102 17q120 0 181 -62t71 -172q38 52 83 95t96 74t106 48t112 17q127 0 191.5 -69.5t64.5 -199.5z" />
    <glyph glyph-name="n" unicode="n" horiz-adv-x="1225" 
d="M1151 780q0 -15 -3 -40t-7.5 -52t-9.5 -52.5t-9 -43.5l-125 -592h-317l123 584l12 66t6 52q0 48 -24.5 76.5t-73.5 28.5q-41 0 -85.5 -25.5t-83.5 -67.5t-68.5 -96.5t-41.5 -111.5l-106 -506h-322l152 702l18 92.5t16 89t12.5 79t8.5 61.5h312l-6.5 -58.5l-7 -58.5
t-6.5 -49.5t-5 -30.5h4q35 46 79 86.5t93.5 70.5t102.5 47.5t106 17.5q127 0 191.5 -70.5t64.5 -198.5z" />
    <glyph glyph-name="o" unicode="o" horiz-adv-x="1178" 
d="M1116 618q0 -71 -14 -146t-44 -146.5t-77.5 -135.5t-115 -111.5t-156 -75.5t-201.5 -28q-114 0 -198.5 33t-139.5 91t-82 137.5t-27 171.5q0 74 15 150.5t46.5 147.5t80.5 133.5t117 109t155.5 73.5t196.5 27q107 0 189.5 -30.5t139 -87t86 -136t29.5 -177.5zM797 614
q0 42 -10 77.5t-29.5 61t-47.5 40t-65 14.5q-63 0 -112.5 -36t-83.5 -93t-52 -128t-18 -142q0 -91 42.5 -141t110.5 -50q65 0 114.5 35t83 91.5t50.5 127.5t17 143z" />
    <glyph glyph-name="p" unicode="p" horiz-adv-x="1214" 
d="M1153 670q0 -84 -18 -168.5t-53.5 -162t-89.5 -144t-126 -115.5t-162.5 -77t-199.5 -28q-40 0 -88 6t-82 15l-101 -467h-319l246 1157q6 31 14 76.5t15 93.5l13 93t7 75h311q-1 -15 -3 -38.5t-5 -48.5t-6.5 -48.5t-5.5 -38.5h4q28 42 63 78t77.5 63t93 42.5t108.5 15.5
q68 0 124.5 -25t97 -73.5t63 -119t22.5 -161.5zM836 633q0 35 -6.5 66.5t-22.5 55.5t-41.5 38t-63.5 14q-56 0 -101 -32.5t-79 -84t-57.5 -115t-36.5 -126.5l-53 -234q12 -4 28.5 -7t34 -5.5t34.5 -4t30 -1.5q74 0 135.5 36.5t105.5 97t68.5 139.5t24.5 163z" />
    <glyph glyph-name="q" unicode="q" horiz-adv-x="1214" 
d="M872 -471h-317l90 430l11.5 48.5l13 55.5t13.5 53t11 42h-4q-28 -39 -61.5 -72.5t-72 -58t-83.5 -38.5t-96 -14q-75 0 -133.5 26.5t-99 77.5t-62 124t-21.5 166q0 63 13.5 138t44.5 150.5t82.5 146t127.5 125t178.5 87.5t235.5 33q74 0 139.5 -6t121.5 -15.5t101 -20.5
t77 -20zM827 813q-23 6 -50 10t-58 4q-63 0 -113 -21.5t-88 -57.5t-64.5 -82t-43 -94t-24 -94.5t-7.5 -84.5t7 -70.5t22.5 -56t39.5 -36.5t58 -13q40 0 73 15.5t60 42t48.5 61.5t38 73t28.5 77.5t20 74.5l53 252v0z" />
    <glyph glyph-name="r" unicode="r" horiz-adv-x="819" 
d="M831 733h-2q-21 11 -53.5 20t-60.5 9q-59 0 -106 -26.5t-83 -71.5t-60.5 -105.5t-39.5 -128.5l-90 -430h-320l140 653q10 47 19.5 97l18 98.5t15 93.5t10.5 82h313l-6.5 -60l-7 -59.5t-7 -51.5l-5.5 -36h4q62 115 130.5 173.5t158.5 58.5q26 0 51 -5t45 -8z" />
    <glyph glyph-name="s" unicode="s" horiz-adv-x="899" 
d="M817 768q-21 11 -49 22t-59.5 20t-64.5 15t-64 6q-73 0 -104.5 -28t-31.5 -68q0 -41 31 -67t82 -52q60 -29 105 -58t75 -64t45 -78.5t15 -100.5q0 -61 -25 -122t-81 -109.5t-147.5 -78.5t-224.5 -30q-38 0 -81 4t-85 11t-80.5 17t-68.5 22l47 241q26 -14 60 -28
t72.5 -25.5t79.5 -19t81 -7.5q75 0 111.5 26t36.5 71q0 38 -28 66.5t-97 60.5q-57 27 -100.5 56t-73.5 64t-45 78t-15 97q0 57 22.5 117.5t74.5 110t137.5 81t210.5 31.5q38 0 78 -3.5t78 -9.5t72 -14t60 -16z" />
    <glyph glyph-name="t" unicode="t" horiz-adv-x="768" 
d="M776 791h-239l-82 -383q-2 -13 -5 -28t-5.5 -30t-4.5 -28.5t-2 -22.5q0 -40 20 -59t66 -19q12 0 30.5 3t38 8t37.5 10.5t29 9.5l-49 -234q-18 -7 -44 -14t-57 -13t-64.5 -10t-65.5 -4q-76 0 -127 19.5t-81.5 54t-43 80.5t-12.5 100q0 16 2 37t5.5 43t8 44.5l8.5 41.5
l82 394h-158l56 233h151l52 240l333 82l-67 -322h243z" />
    <glyph glyph-name="u" unicode="u" horiz-adv-x="1225" 
d="M1051 340q-9 -45 -17 -93.5t-14 -93.5t-10 -84.5t-6 -68.5h-320q3 29 6.5 59t7.5 56.5l7 47.5t4 30h-4q-39 -49 -83.5 -89t-93 -68.5t-100 -44.5t-104.5 -16q-127 0 -192.5 70.5t-65.5 198.5q0 15 3 40t7.5 52l9 52.5t8.5 43.5l125 592h318l-123 -578q-4 -16 -7.5 -34
t-6 -35t-4 -31t-1.5 -22q0 -44 24 -70.5t70 -26.5q50 0 97 28t85 73t65.5 101t39.5 112l103 483h319z" />
    <glyph glyph-name="v" unicode="v" horiz-adv-x="1092" 
d="M602 0h-352l-135 1024h315l41 -567q2 -19 3.5 -46t2.5 -56t1.5 -57.5t-1.5 -49.5h4q8 21 19 46.5l23 53l24.5 55l23.5 52.5l275 569h348z" />
    <glyph glyph-name="w" unicode="w" horiz-adv-x="1628" 
d="M1200 0h-328l-24 606q0 31 2.5 69t5.5 62h-4q-4 -15 -9.5 -32t-12 -35l-13 -34.5t-12.5 -29.5l-285 -606h-334l-69 1024h303v-666q0 -23 -2.5 -58t-7.5 -58h6q4 10 9.5 26l11.5 33.5l12 34.5t12 29l311 659h305l19 -664q0 -11 -0.5 -28t-2 -34.5t-3 -33t-3.5 -24.5h7
l8 26l11 34t12 34l10 26l268 664h307z" />
    <glyph glyph-name="x" unicode="x" horiz-adv-x="1122" 
d="M780 514l228 -514h-351l-92 268q-8 23 -15 49.5t-13 51.5h-5l-30 -51t-31 -46l-203 -272h-372l456 518l-219 506h352l84 -270q10 -26 17 -56.5t10 -50.5h4q12 22 32 51.5l36 51.5l200 274h359z" />
    <glyph glyph-name="y" unicode="y" horiz-adv-x="1102" 
d="M551 -90q-51 -89 -105.5 -161.5t-118.5 -123.5t-141.5 -78.5t-175.5 -27.5q-34 0 -81.5 6.5t-88.5 21.5l54 244q21 -15 52 -23t62 -8q59 0 110 27.5t89 89.5l82 129l-199 1018h332l72 -623q3 -34 4 -73t-2 -64h4l23 62t34 75l313 623h332z" />
    <glyph glyph-name="z" unicode="z" horiz-adv-x="995" 
d="M1026 864l-606 -631h475l-49 -233h-930l27 133l645 658h-453l49 233h877z" />
    <glyph glyph-name="braceleft" unicode="{" horiz-adv-x="758" 
d="M821 1245q-43 0 -75 -9.5t-56 -31t-40 -56t-27 -85.5l-54 -248q-24 -112 -76.5 -189t-134.5 -102v-4q41 -23 69 -70.5t28 -121.5q0 -53 -13 -115l-47 -215q-5 -19 -6.5 -36.5t-1.5 -31.5q0 -114 129 -114l-39 -187q-99 0 -165.5 21.5t-106.5 59t-57 87.5t-17 107
q0 26 4 54.5t10 59.5l52 238q5 19 6.5 35.5t1.5 32.5q0 62 -33 92t-90 30l41 187q78 0 123.5 39.5t62.5 126.5l53 252q19 87 47.5 149t65 105t80.5 68t93 39t102.5 18t109.5 4z" />
    <glyph glyph-name="bar" unicode="|" horiz-adv-x="668" 
d="M229 -481v2048h252v-2048h-252z" />
    <glyph glyph-name="braceright" unicode="}" horiz-adv-x="758" 
d="M633 434q-81 0 -125.5 -40.5t-63.5 -125.5l-53 -252q-18 -87 -47 -150t-65.5 -105.5t-80 -68t-93 -39.5t-102.5 -18t-109 -4l40 189q42 0 74.5 10t56.5 31.5t40.5 56.5t27.5 86l51 248q25 111 77.5 188.5t133.5 102.5v4q-40 23 -68 70t-28 122q0 25 3 53t11 62l45 213
q5 19 7 36.5t2 31.5q0 114 -129 114l38 187q99 0 166 -21t107 -57.5t57 -86t17 -106.5q0 -26 -3.5 -57t-11.5 -61l-51 -236q-5 -19 -6.5 -35.5t-1.5 -32.5q0 -63 33 -94t90 -31z" />
    <glyph glyph-name="asciitilde" unicode="~" horiz-adv-x="1450" 
d="M1268 772q-2 -81 -24 -148t-62 -115t-97 -74.5t-129 -26.5q-39 0 -71.5 6.5t-63 18t-60.5 28l-65 35.5l-76 42t-79 21q-33 0 -56.5 -13t-39 -35.5t-23 -51t-8.5 -60.5h-207q3 75 23 141t58.5 116t97 79t138.5 29q38 0 70 -6t60.5 -16.5t55 -24.5l52.5 -29l54 -32.5
t45 -24.5t40.5 -15.5t40.5 -5.5q28 0 50 12.5t37.5 34t24 51.5t9.5 64h205v0z" />
    <glyph glyph-name="Adieresis" unicode="&#xc4;" horiz-adv-x="1440" 
d="M985 0l-41 319h-514l-168 -319h-364l827 1434h385l205 -1434h-330zM868 1051q-1 16 -1.5 35.5t0 37.5t1.5 32.5t2 21.5h-6q-2 -9 -7 -23t-11.5 -30.5t-15 -34.5t-17.5 -35l-262 -488h369zM1323 1703q0 -29 -10.5 -54.5t-30.5 -44t-48.5 -29.5t-63.5 -11t-63.5 11
t-48.5 30t-31 44.5t-11 53.5q0 30 11.5 55t32.5 42.5t49 27.5t61 10q34 0 62 -10t48.5 -28t31.5 -43t11 -54zM866 1703q0 -29 -11 -54.5t-31 -44t-48 -29.5t-63 -11q-34 0 -63 11t-49.5 30t-32 44.5t-11.5 53.5q0 30 12 55t33 42.5t49.5 27.5t61.5 10q34 0 62 -10t48.5 -28
t31.5 -43t11 -54z" />
    <glyph glyph-name="Aring" unicode="&#xc5;" horiz-adv-x="1440" 
d="M985 0l-41 319h-512l-170 -319h-364l815 1411q-23 25 -35 59t-12 72q0 60 22.5 104t58.5 72.5t81.5 42t91.5 13.5q57 0 103.5 -17t79.5 -47t50.5 -72t17.5 -92q0 -43 -15.5 -79.5t-41.5 -61.5l201 -1405h-330zM1024 1546q0 40 -29 68t-80 28q-24 0 -43 -8.5t-32 -22
t-20 -30.5t-7 -35q0 -42 27 -71t75 -29q23 0 42.5 7.5t34.5 21t23.5 32t8.5 39.5zM866 1049q-2 16 -2.5 34.5t0.5 35t2 30t2 20.5h-8q-3 -15 -15.5 -48.5t-31.5 -67.5l-263 -486h370z" />
    <glyph glyph-name="Ccedilla" unicode="&#xc7;" horiz-adv-x="1300" 
d="M1313 1087q-30 16 -64.5 32t-75.5 28.5t-88.5 20.5t-103.5 8q-130 0 -229.5 -44.5t-167.5 -119.5t-103 -174t-35 -209q0 -91 27 -161t77 -117.5t120 -72t157 -24.5q55 0 103 7.5t91 20t81.5 28.5t73.5 34l-68 -305q-74 -31 -163.5 -47.5t-201.5 -16.5q-150 0 -269 44.5
t-201 126.5t-125.5 196.5t-43.5 255.5q0 113 24 220.5t72.5 203t122 175.5t173 138t226 90.5t279.5 32.5q58 0 112 -6t103 -15.5t90.5 -21t73.5 -22.5zM929 -229q0 -45 -20 -86t-62 -72.5t-105.5 -50.5t-150.5 -19q-30 0 -57.5 2l-52.5 4l31 138q42 -9 75 -9q66 0 103 21.5
t37 56.5q0 64 -111 64h-22t-25 -2l43 182h154l-19 -82q40 -2 73.5 -11.5t57.5 -27.5t37.5 -45t13.5 -63z" />
    <glyph glyph-name="Eacute" unicode="&#xc9;" horiz-adv-x="1085" 
d="M1124 1171h-501l-68 -323h467l-57 -264h-465l-70 -322h535l-56 -262h-860l305 1434h826zM842 1565h-235l315 325h289z" />
    <glyph glyph-name="Ntilde" unicode="&#xd1;" horiz-adv-x="1636" 
d="M1362 0h-295l-449 911q-6 12 -13 28l-14 32.5l-13 31.5t-9 27h-6l-11 -83t-17 -91l-183 -856h-303l303 1434h320l430 -877l12.5 -26.5l15 -32t14 -32.5t9.5 -28h4q1 15 3 33.5t5 37.5t6.5 37t6.5 32l182 856h305zM1427 1867q-10 -72 -34 -125t-58.5 -88t-77 -52.5
t-90.5 -17.5q-51 0 -86.5 13t-63 28l-52 28t-54.5 13q-25 0 -44 -8.5t-32 -22.5t-21 -32t-11 -37h-154q7 61 28.5 112.5t55 89t79 59t101.5 21.5q50 0 83 -13t60 -28t53 -28t60 -13q41 0 68.5 26.5t34.5 74.5h155v0z" />
    <glyph glyph-name="Odieresis" unicode="&#xd6;" horiz-adv-x="1554" 
d="M1511 842q0 -86 -15 -173t-44.5 -168.5t-74 -156.5t-103.5 -137q-50 -53 -109 -96t-128.5 -73t-150.5 -46.5t-175 -16.5q-142 0 -253.5 47t-188.5 129.5t-117.5 195.5t-40.5 245q0 93 16 183.5t48.5 174t81 159t112.5 138.5q50 48 108 86.5t125 66.5t144 43t165 15
q133 0 243.5 -42t189.5 -121.5t123 -194t44 -258.5zM1169 831q0 81 -20.5 145t-58.5 108.5t-92.5 68t-123.5 23.5q-80 0 -152 -37t-128 -103q-34 -40 -60 -92t-44 -110t-27.5 -118.5t-9.5 -119.5q0 -81 20.5 -145t58.5 -107.5t91.5 -66.5t119.5 -23q82 0 156.5 36t130.5 107
q35 42 61 94.5t43 109.5t26 116t9 114zM1325 1706q0 -29 -10.5 -54.5t-30.5 -44t-48.5 -29.5t-63.5 -11t-63.5 11t-48.5 30t-31 44.5t-11 53.5q0 30 11.5 55t32.5 42.5t49 27.5t61 10q34 0 62 -10t48.5 -28t31.5 -43t11 -54zM868 1706q0 -29 -11 -54.5t-31 -44t-48 -29.5
t-63 -11q-34 0 -63 11t-49.5 30t-32 44.5t-11.5 53.5q0 30 12 55t33 42.5t49.5 27.5t61.5 10q34 0 62 -10t48.5 -28t31.5 -43t11 -54z" />
    <glyph glyph-name="Udieresis" unicode="&#xdc;" horiz-adv-x="1481" 
d="M1343 584q-30 -141 -77 -254t-124.5 -192t-192.5 -121t-281 -42q-120 0 -216 33t-163 95.5t-103 152t-36 203.5q0 52 8 114.5t20 116.5l160 744h326l-162 -746q-11 -53 -20 -106t-9 -90q0 -58 17.5 -102.5t49 -74.5t74 -45.5t91.5 -15.5q57 0 106 17t88 56t69 103.5
t50 159.5l182 844h326zM1339 1705q0 -29 -10.5 -54.5t-30.5 -44t-48.5 -29.5t-63.5 -11t-63.5 11t-48.5 30t-31 44.5t-11 53.5q0 30 11.5 55t32.5 42.5t49 27.5t61 10q34 0 62 -10t48.5 -28t31.5 -43t11 -54zM882 1705q0 -29 -11 -54.5t-31 -44t-48 -29.5t-63 -11
q-34 0 -63 11t-49.5 30t-32 44.5t-11.5 53.5q0 30 12 55t33 42.5t49.5 27.5t61.5 10q34 0 62 -10t48.5 -28t31.5 -43t11 -54z" />
    <glyph glyph-name="aacute" unicode="&#xe1;" horiz-adv-x="1214" 
d="M1044 338q-7 -31 -13.5 -75t-12 -91.5t-9 -93t-3.5 -78.5h-320q0 15 1.5 38.5t3.5 48t4.5 48t4.5 39.5h-4q-29 -39 -60 -75t-69 -63.5t-84.5 -44t-107.5 -16.5q-75 0 -133.5 27t-98.5 78t-61 124.5t-21 166.5q0 47 10.5 115.5t38 144t76.5 150t125.5 134.5t185 97
t255.5 37q57 0 114.5 -4.5t113 -12t107.5 -17.5t97 -20zM829 817q-23 5 -51 7.5t-53 2.5q-69 0 -121 -23t-90.5 -60t-64.5 -84t-41.5 -95.5t-22 -94.5t-6.5 -81q0 -37 7.5 -68.5t23.5 -54.5t39.5 -36t54.5 -13q57 0 101.5 33t78 84.5t56 116t36.5 127.5l53 239v0zM763 1186
h-235l315 325h289z" />
    <glyph glyph-name="agrave" unicode="&#xe0;" horiz-adv-x="1214" 
d="M1044 338q-7 -31 -13.5 -75t-12 -91.5t-9 -93t-3.5 -78.5h-320q0 15 1.5 38.5t3.5 48t4.5 48t4.5 39.5h-4q-29 -39 -60 -75t-69 -63.5t-84.5 -44t-107.5 -16.5q-75 0 -133.5 27t-98.5 78t-61 124.5t-21 166.5q0 47 10.5 115.5t38 144t76.5 150t125.5 134.5t185 97
t255.5 37q57 0 114.5 -4.5t113 -12t107.5 -17.5t97 -20zM829 817q-23 5 -51 7.5t-53 2.5q-69 0 -121 -23t-90.5 -60t-64.5 -84t-41.5 -95.5t-22 -94.5t-6.5 -81q0 -37 7.5 -68.5t23.5 -54.5t39.5 -36t54.5 -13q57 0 101.5 33t78 84.5t56 116t36.5 127.5l53 239v0zM768 1186
l-260 325h264l209 -325h-213z" />
    <glyph glyph-name="acircumflex" unicode="&#xe2;" horiz-adv-x="1214" 
d="M1044 338q-7 -31 -13.5 -75t-12 -91.5t-9 -93t-3.5 -78.5h-320q0 15 1.5 38.5t3.5 48t4.5 48t4.5 39.5h-4q-29 -39 -60 -75t-69 -63.5t-84.5 -44t-107.5 -16.5q-75 0 -133.5 27t-98.5 78t-61 124.5t-21 166.5q0 47 10.5 115.5t38 144t76.5 150t125.5 134.5t185 97
t255.5 37q57 0 114.5 -4.5t113 -12t107.5 -17.5t97 -20zM829 817q-23 5 -51 7.5t-53 2.5q-69 0 -121 -23t-90.5 -60t-64.5 -84t-41.5 -95.5t-22 -94.5t-6.5 -81q0 -37 7.5 -68.5t23.5 -54.5t39.5 -36t54.5 -13q57 0 101.5 33t78 84.5t56 116t36.5 127.5l53 239v0zM895 1186
l-116 190l-197 -190h-211l303 327h250l168 -327h-197z" />
    <glyph glyph-name="adieresis" unicode="&#xe4;" horiz-adv-x="1214" 
d="M1044 338q-7 -31 -13.5 -75t-12 -91.5t-9 -93t-3.5 -78.5h-320q0 15 1.5 38.5t3.5 48t4.5 48t4.5 39.5h-4q-29 -39 -60 -75t-69 -63.5t-84.5 -44t-107.5 -16.5q-75 0 -133.5 27t-98.5 78t-61 124.5t-21 166.5q0 47 10.5 115.5t38 144t76.5 150t125.5 134.5t185 97
t255.5 37q57 0 114.5 -4.5t113 -12t107.5 -17.5t97 -20zM829 817q-23 5 -51 7.5t-53 2.5q-69 0 -121 -23t-90.5 -60t-64.5 -84t-41.5 -95.5t-22 -94.5t-6.5 -81q0 -37 7.5 -68.5t23.5 -54.5t39.5 -36t54.5 -13q57 0 101.5 33t78 84.5t56 116t36.5 127.5l53 239v0zM1134 1325
q0 -29 -10.5 -54.5t-30.5 -44t-48.5 -29.5t-63.5 -11t-63.5 11t-48.5 30t-31 44.5t-11 53.5q0 30 11.5 55t32.5 42.5t49 27.5t61 10q34 0 62 -10t48.5 -28t31.5 -43t11 -54zM677 1325q0 -29 -11 -54.5t-31 -44t-48 -29.5t-63 -11q-34 0 -63 11t-49.5 30t-32 44.5t-11.5 53.5
q0 30 12 55t33 42.5t49.5 27.5t61.5 10q34 0 62 -10t48.5 -28t31.5 -43t11 -54z" />
    <glyph glyph-name="atilde" unicode="&#xe3;" horiz-adv-x="1214" 
d="M1044 338q-7 -31 -13.5 -75t-12 -91.5t-9 -93t-3.5 -78.5h-320q0 15 1.5 38.5t3.5 48t4.5 48t4.5 39.5h-4q-29 -39 -60 -75t-69 -63.5t-84.5 -44t-107.5 -16.5q-75 0 -133.5 27t-98.5 78t-61 124.5t-21 166.5q0 47 10.5 115.5t38 144t76.5 150t125.5 134.5t185 97
t255.5 37q57 0 114.5 -4.5t113 -12t107.5 -17.5t97 -20zM829 817q-23 5 -51 7.5t-53 2.5q-69 0 -121 -23t-90.5 -60t-64.5 -84t-41.5 -95.5t-22 -94.5t-6.5 -81q0 -37 7.5 -68.5t23.5 -54.5t39.5 -36t54.5 -13q57 0 101.5 33t78 84.5t56 116t36.5 127.5l53 239v0zM1149 1487
q-10 -72 -34 -125t-58.5 -88t-77 -52.5t-90.5 -17.5q-51 0 -86.5 13t-63 28l-52 28t-54.5 13q-25 0 -44 -8.5t-32 -22.5t-21 -32t-11 -37h-154q7 61 28.5 112.5t55 89t79 59t101.5 21.5q50 0 83 -13t60 -28t53 -28t60 -13q41 0 68.5 26.5t34.5 74.5h155v0z" />
    <glyph glyph-name="aring" unicode="&#xe5;" horiz-adv-x="1214" 
d="M1044 338q-7 -31 -13.5 -75t-12 -91.5t-9 -93t-3.5 -78.5h-320q0 15 1.5 38.5t3.5 48t4.5 48t4.5 39.5h-4q-29 -39 -60 -75t-69 -63.5t-84.5 -44t-107.5 -16.5q-75 0 -133.5 27t-98.5 78t-61 124.5t-21 166.5q0 47 10.5 115.5t38 144t76.5 150t125.5 134.5t185 97
t255.5 37q57 0 114.5 -4.5t113 -12t107.5 -17.5t97 -20zM829 817q-23 5 -51 7.5t-53 2.5q-69 0 -121 -23t-90.5 -60t-64.5 -84t-41.5 -95.5t-22 -94.5t-6.5 -81q0 -37 7.5 -68.5t23.5 -54.5t39.5 -36t54.5 -13q57 0 101.5 33t78 84.5t56 116t36.5 127.5l53 239v0zM1021 1378
q0 -54 -21 -95t-55 -69t-78 -42.5t-90 -14.5q-49 0 -92 15t-74.5 43t-50 68t-18.5 89q0 56 21 97.5t55 69t77 41t87 13.5q54 0 98.5 -16t75.5 -44.5t48 -68t17 -86.5zM880 1376q0 38 -27.5 66t-75.5 28q-23 0 -41 -8.5t-30 -22t-18.5 -30t-6.5 -33.5q0 -40 25 -67t71 -27
q44 0 73.5 26t29.5 68z" />
    <glyph glyph-name="ccedilla" unicode="&#xe7;" horiz-adv-x="946" 
d="M901 743q-34 26 -88 45t-117 19q-73 0 -132 -34t-100 -88t-63 -121t-22 -132q0 -103 48 -159t144 -56q30 0 62.5 6t64.5 16.5t61.5 23.5t53.5 28l-49 -242q-68 -35 -145 -54.5t-154 -19.5q-100 0 -175.5 31t-126.5 87t-76.5 133.5t-25.5 170.5q0 86 19.5 167.5
t56.5 153.5t91.5 133t125 105t156 68.5t184.5 24.5q46 0 87 -5.5t75 -14t60 -19t42 -19.5zM657 -229q0 -45 -20 -86t-62 -72.5t-105.5 -50.5t-150.5 -19q-30 0 -57.5 2l-52.5 4l31 138q42 -9 75 -9q66 0 103 21.5t37 56.5q0 64 -111 64h-22t-25 -2l43 182h154l-19 -82
q40 -2 73.5 -11.5t57.5 -27.5t37.5 -45t13.5 -63z" />
    <glyph glyph-name="eacute" unicode="&#xe9;" horiz-adv-x="1065" 
d="M1051 760q0 -79 -33.5 -145t-112 -114t-208.5 -75.5t-324 -30.5q-2 -6 -2 -10.5v-9.5q0 -31 10 -62t34.5 -56t64.5 -40.5t100 -15.5q36 0 78.5 6.5t86.5 19t87.5 30t80.5 38.5l-49 -236q-31 -16 -71 -31t-86.5 -27t-99 -19t-107.5 -7q-116 0 -199 34t-136.5 91.5
t-78.5 134.5t-25 164q0 131 43.5 249t124 207t194 141.5t253.5 52.5q101 0 172 -24t116 -64.5t66 -92.5t21 -108zM750 756q0 37 -27.5 61.5t-77.5 24.5q-44 0 -84.5 -19t-74 -52.5t-57.5 -80t-36 -100.5q180 -2 268.5 41t88.5 125zM705 1186h-235l315 325h289z" />
    <glyph glyph-name="egrave" unicode="&#xe8;" horiz-adv-x="1065" 
d="M1051 760q0 -79 -33.5 -145t-112 -114t-208.5 -75.5t-324 -30.5q-2 -6 -2 -10.5v-9.5q0 -31 10 -62t34.5 -56t64.5 -40.5t100 -15.5q36 0 78.5 6.5t86.5 19t87.5 30t80.5 38.5l-49 -236q-31 -16 -71 -31t-86.5 -27t-99 -19t-107.5 -7q-116 0 -199 34t-136.5 91.5
t-78.5 134.5t-25 164q0 131 43.5 249t124 207t194 141.5t253.5 52.5q101 0 172 -24t116 -64.5t66 -92.5t21 -108zM750 756q0 37 -27.5 61.5t-77.5 24.5q-44 0 -84.5 -19t-74 -52.5t-57.5 -80t-36 -100.5q180 -2 268.5 41t88.5 125zM661 1186l-260 325h264l209 -325h-213z
" />
    <glyph glyph-name="ecircumflex" unicode="&#xea;" horiz-adv-x="1065" 
d="M1051 760q0 -79 -33.5 -145t-112 -114t-208.5 -75.5t-324 -30.5q-2 -6 -2 -10.5v-9.5q0 -31 10 -62t34.5 -56t64.5 -40.5t100 -15.5q36 0 78.5 6.5t86.5 19t87.5 30t80.5 38.5l-49 -236q-31 -16 -71 -31t-86.5 -27t-99 -19t-107.5 -7q-116 0 -199 34t-136.5 91.5
t-78.5 134.5t-25 164q0 131 43.5 249t124 207t194 141.5t253.5 52.5q101 0 172 -24t116 -64.5t66 -92.5t21 -108zM750 756q0 37 -27.5 61.5t-77.5 24.5q-44 0 -84.5 -19t-74 -52.5t-57.5 -80t-36 -100.5q180 -2 268.5 41t88.5 125zM843 1186l-116 190l-197 -190h-211
l303 327h250l168 -327h-197z" />
    <glyph glyph-name="edieresis" unicode="&#xeb;" horiz-adv-x="1065" 
d="M1051 760q0 -79 -33.5 -145t-112 -114t-208.5 -75.5t-324 -30.5q-2 -6 -2 -10.5v-9.5q0 -31 10 -62t34.5 -56t64.5 -40.5t100 -15.5q36 0 78.5 6.5t86.5 19t87.5 30t80.5 38.5l-49 -236q-31 -16 -71 -31t-86.5 -27t-99 -19t-107.5 -7q-116 0 -199 34t-136.5 91.5
t-78.5 134.5t-25 164q0 131 43.5 249t124 207t194 141.5t253.5 52.5q101 0 172 -24t116 -64.5t66 -92.5t21 -108zM750 756q0 37 -27.5 61.5t-77.5 24.5q-44 0 -84.5 -19t-74 -52.5t-57.5 -80t-36 -100.5q180 -2 268.5 41t88.5 125zM1063 1325q0 -29 -10.5 -54.5t-30.5 -44
t-48.5 -29.5t-63.5 -11t-63.5 11t-48.5 30t-31 44.5t-11 53.5q0 30 11.5 55t32.5 42.5t49 27.5t61 10q34 0 62 -10t48.5 -28t31.5 -43t11 -54zM606 1325q0 -29 -11 -54.5t-31 -44t-48 -29.5t-63 -11q-34 0 -63 11t-49.5 30t-32 44.5t-11.5 53.5q0 30 12 55t33 42.5
t49.5 27.5t61.5 10q34 0 62 -10t48.5 -28t31.5 -43t11 -54z" />
    <glyph glyph-name="iacute" unicode="&#xed;" horiz-adv-x="650" 
d="M535 9q-18 -5 -41.5 -10t-50 -9.5t-55 -7t-56.5 -2.5q-67 0 -114.5 17.5t-78.5 49t-45.5 75t-14.5 95.5q0 22 2.5 49t6.5 56.5t9.5 60t11.5 58.5q4 17 13.5 62.5l22 104.5l26.5 124.5l26.5 124.5l22 104.5t13.5 62.5h320l-122 -576q-8 -35 -17 -78.5t-9 -75.5
q0 -38 24 -53t55 -15q26 0 52.5 5.5t48.5 14.5l-25 -118.5zM430 1186h-235l315 325h289z" />
    <glyph glyph-name="igrave" unicode="&#xec;" horiz-adv-x="650" 
d="M535 9q-18 -5 -41.5 -10t-50 -9.5t-55 -7t-56.5 -2.5q-67 0 -114.5 17.5t-78.5 49t-45.5 75t-14.5 95.5q0 22 2.5 49t6.5 56.5t9.5 60t11.5 58.5q4 17 13.5 62.5l22 104.5l26.5 124.5l26.5 124.5l22 104.5t13.5 62.5h320l-122 -576q-8 -35 -17 -78.5t-9 -75.5
q0 -38 24 -53t55 -15q26 0 52.5 5.5t48.5 14.5l-25 -118.5zM440 1186l-260 325h264l209 -325h-213z" />
    <glyph glyph-name="icircumflex" unicode="&#xee;" horiz-adv-x="650" 
d="M535 9q-18 -5 -41.5 -10t-50 -9.5t-55 -7t-56.5 -2.5q-67 0 -114.5 17.5t-78.5 49t-45.5 75t-14.5 95.5q0 22 2.5 49t6.5 56.5t9.5 60t11.5 58.5q4 17 13.5 62.5l22 104.5l26.5 124.5l26.5 124.5l22 104.5t13.5 62.5h320l-122 -576q-8 -35 -17 -78.5t-9 -75.5
q0 -38 24 -53t55 -15q26 0 52.5 5.5t48.5 14.5l-25 -118.5zM575 1186l-116 190l-197 -190h-211l303 327h250l168 -327h-197z" />
    <glyph glyph-name="idieresis" unicode="&#xef;" horiz-adv-x="650" 
d="M535 9q-18 -5 -41.5 -10t-50 -9.5t-55 -7t-56.5 -2.5q-67 0 -114.5 17.5t-78.5 49t-45.5 75t-14.5 95.5q0 22 2.5 49t6.5 56.5t9.5 60t11.5 58.5q4 17 13.5 62.5l22 104.5l26.5 124.5l26.5 124.5l22 104.5t13.5 62.5h320l-122 -576q-8 -35 -17 -78.5t-9 -75.5
q0 -38 24 -53t55 -15q26 0 52.5 5.5t48.5 14.5l-25 -118.5zM802 1325q0 -29 -10.5 -54.5t-30.5 -44t-48.5 -29.5t-63.5 -11t-63.5 11t-48.5 30t-31 44.5t-11 53.5q0 30 11.5 55t32.5 42.5t49 27.5t61 10q34 0 62 -10t48.5 -28t31.5 -43t11 -54zM345 1325q0 -29 -11 -54.5
t-31 -44t-48 -29.5t-63 -11q-34 0 -63 11t-49.5 30t-32 44.5t-11.5 53.5q0 30 12 55t33 42.5t49.5 27.5t61.5 10q34 0 62 -10t48.5 -28t31.5 -43t11 -54z" />
    <glyph glyph-name="ntilde" unicode="&#xf1;" horiz-adv-x="1225" 
d="M1151 780q0 -15 -3 -40t-7.5 -52t-9.5 -52.5t-9 -43.5l-125 -592h-317l123 584l12 66t6 52q0 48 -24.5 76.5t-73.5 28.5q-41 0 -85.5 -25.5t-83.5 -67.5t-68.5 -96.5t-41.5 -111.5l-106 -506h-322l152 702l18 92.5t16 89t12.5 79t8.5 61.5h312l-6.5 -58.5l-7 -58.5
t-6.5 -49.5t-5 -30.5h4q35 46 79 86.5t93.5 70.5t102.5 47.5t106 17.5q127 0 191.5 -70.5t64.5 -198.5zM1132 1487q-10 -72 -34 -125t-58.5 -88t-77 -52.5t-90.5 -17.5q-51 0 -86.5 13t-63 28l-52 28t-54.5 13q-25 0 -44 -8.5t-32 -22.5t-21 -32t-11 -37h-154
q7 61 28.5 112.5t55 89t79 59t101.5 21.5q50 0 83 -13t60 -28t53 -28t60 -13q41 0 68.5 26.5t34.5 74.5h155v0z" />
    <glyph glyph-name="oacute" unicode="&#xf3;" horiz-adv-x="1178" 
d="M1116 618q0 -71 -14 -146t-44 -146.5t-77.5 -135.5t-115 -111.5t-156 -75.5t-201.5 -28q-114 0 -198.5 33t-139.5 91t-82 137.5t-27 171.5q0 74 15 150.5t46.5 147.5t80.5 133.5t117 109t155.5 73.5t196.5 27q107 0 189.5 -30.5t139 -87t86 -136t29.5 -177.5zM797 614
q0 42 -10 77.5t-29.5 61t-47.5 40t-65 14.5q-63 0 -112.5 -36t-83.5 -93t-52 -128t-18 -142q0 -91 42.5 -141t110.5 -50q65 0 114.5 35t83 91.5t50.5 127.5t17 143zM714 1186h-235l315 325h289z" />
    <glyph glyph-name="ograve" unicode="&#xf2;" horiz-adv-x="1178" 
d="M1116 618q0 -71 -14 -146t-44 -146.5t-77.5 -135.5t-115 -111.5t-156 -75.5t-201.5 -28q-114 0 -198.5 33t-139.5 91t-82 137.5t-27 171.5q0 74 15 150.5t46.5 147.5t80.5 133.5t117 109t155.5 73.5t196.5 27q107 0 189.5 -30.5t139 -87t86 -136t29.5 -177.5zM797 614
q0 42 -10 77.5t-29.5 61t-47.5 40t-65 14.5q-63 0 -112.5 -36t-83.5 -93t-52 -128t-18 -142q0 -91 42.5 -141t110.5 -50q65 0 114.5 35t83 91.5t50.5 127.5t17 143zM684 1186l-260 325h264l209 -325h-213z" />
    <glyph glyph-name="ocircumflex" unicode="&#xf4;" horiz-adv-x="1178" 
d="M1116 618q0 -71 -14 -146t-44 -146.5t-77.5 -135.5t-115 -111.5t-156 -75.5t-201.5 -28q-114 0 -198.5 33t-139.5 91t-82 137.5t-27 171.5q0 74 15 150.5t46.5 147.5t80.5 133.5t117 109t155.5 73.5t196.5 27q107 0 189.5 -30.5t139 -87t86 -136t29.5 -177.5zM797 614
q0 42 -10 77.5t-29.5 61t-47.5 40t-65 14.5q-63 0 -112.5 -36t-83.5 -93t-52 -128t-18 -142q0 -91 42.5 -141t110.5 -50q65 0 114.5 35t83 91.5t50.5 127.5t17 143zM844 1186l-116 190l-197 -190h-211l303 327h250l168 -327h-197z" />
    <glyph glyph-name="odieresis" unicode="&#xf6;" horiz-adv-x="1178" 
d="M1116 618q0 -71 -14 -146t-44 -146.5t-77.5 -135.5t-115 -111.5t-156 -75.5t-201.5 -28q-114 0 -198.5 33t-139.5 91t-82 137.5t-27 171.5q0 74 15 150.5t46.5 147.5t80.5 133.5t117 109t155.5 73.5t196.5 27q107 0 189.5 -30.5t139 -87t86 -136t29.5 -177.5zM797 614
q0 42 -10 77.5t-29.5 61t-47.5 40t-65 14.5q-63 0 -112.5 -36t-83.5 -93t-52 -128t-18 -142q0 -91 42.5 -141t110.5 -50q65 0 114.5 35t83 91.5t50.5 127.5t17 143zM1086 1325q0 -29 -10.5 -54.5t-30.5 -44t-48.5 -29.5t-63.5 -11t-63.5 11t-48.5 30t-31 44.5t-11 53.5
q0 30 11.5 55t32.5 42.5t49 27.5t61 10q34 0 62 -10t48.5 -28t31.5 -43t11 -54zM629 1325q0 -29 -11 -54.5t-31 -44t-48 -29.5t-63 -11q-34 0 -63 11t-49.5 30t-32 44.5t-11.5 53.5q0 30 12 55t33 42.5t49.5 27.5t61.5 10q34 0 62 -10t48.5 -28t31.5 -43t11 -54z" />
    <glyph glyph-name="otilde" unicode="&#xf5;" horiz-adv-x="1178" 
d="M1116 618q0 -71 -14 -146t-44 -146.5t-77.5 -135.5t-115 -111.5t-156 -75.5t-201.5 -28q-114 0 -198.5 33t-139.5 91t-82 137.5t-27 171.5q0 74 15 150.5t46.5 147.5t80.5 133.5t117 109t155.5 73.5t196.5 27q107 0 189.5 -30.5t139 -87t86 -136t29.5 -177.5zM797 614
q0 42 -10 77.5t-29.5 61t-47.5 40t-65 14.5q-63 0 -112.5 -36t-83.5 -93t-52 -128t-18 -142q0 -91 42.5 -141t110.5 -50q65 0 114.5 35t83 91.5t50.5 127.5t17 143zM1095 1487q-10 -72 -34 -125t-58.5 -88t-77 -52.5t-90.5 -17.5q-51 0 -86.5 13t-63 28l-52 28t-54.5 13
q-25 0 -44 -8.5t-32 -22.5t-21 -32t-11 -37h-154q7 61 28.5 112.5t55 89t79 59t101.5 21.5q50 0 83 -13t60 -28t53 -28t60 -13q41 0 68.5 26.5t34.5 74.5h155v0z" />
    <glyph glyph-name="uacute" unicode="&#xfa;" horiz-adv-x="1225" 
d="M1051 340q-9 -45 -17 -93.5t-14 -93.5t-10 -84.5t-6 -68.5h-320q3 29 6.5 59t7.5 56.5l7 47.5t4 30h-4q-39 -49 -83.5 -89t-93 -68.5t-100 -44.5t-104.5 -16q-127 0 -192.5 70.5t-65.5 198.5q0 15 3 40t7.5 52l9 52.5t8.5 43.5l125 592h318l-123 -578q-4 -16 -7.5 -34
t-6 -35t-4 -31t-1.5 -22q0 -44 24 -70.5t70 -26.5q50 0 97 28t85 73t65.5 101t39.5 112l103 483h319zM758 1186h-235l315 325h289z" />
    <glyph glyph-name="ugrave" unicode="&#xf9;" horiz-adv-x="1225" 
d="M1051 340q-9 -45 -17 -93.5t-14 -93.5t-10 -84.5t-6 -68.5h-320q3 29 6.5 59t7.5 56.5l7 47.5t4 30h-4q-39 -49 -83.5 -89t-93 -68.5t-100 -44.5t-104.5 -16q-127 0 -192.5 70.5t-65.5 198.5q0 15 3 40t7.5 52l9 52.5t8.5 43.5l125 592h318l-123 -578q-4 -16 -7.5 -34
t-6 -35t-4 -31t-1.5 -22q0 -44 24 -70.5t70 -26.5q50 0 97 28t85 73t65.5 101t39.5 112l103 483h319zM718 1186l-260 325h264l209 -325h-213z" />
    <glyph glyph-name="ucircumflex" unicode="&#xfb;" horiz-adv-x="1225" 
d="M1051 340q-9 -45 -17 -93.5t-14 -93.5t-10 -84.5t-6 -68.5h-320q3 29 6.5 59t7.5 56.5l7 47.5t4 30h-4q-39 -49 -83.5 -89t-93 -68.5t-100 -44.5t-104.5 -16q-127 0 -192.5 70.5t-65.5 198.5q0 15 3 40t7.5 52l9 52.5t8.5 43.5l125 592h318l-123 -578q-4 -16 -7.5 -34
t-6 -35t-4 -31t-1.5 -22q0 -44 24 -70.5t70 -26.5q50 0 97 28t85 73t65.5 101t39.5 112l103 483h319zM884 1186l-116 190l-197 -190h-211l303 327h250l168 -327h-197z" />
    <glyph glyph-name="udieresis" unicode="&#xfc;" horiz-adv-x="1225" 
d="M1051 340q-9 -45 -17 -93.5t-14 -93.5t-10 -84.5t-6 -68.5h-320q3 29 6.5 59t7.5 56.5l7 47.5t4 30h-4q-39 -49 -83.5 -89t-93 -68.5t-100 -44.5t-104.5 -16q-127 0 -192.5 70.5t-65.5 198.5q0 15 3 40t7.5 52l9 52.5t8.5 43.5l125 592h318l-123 -578q-4 -16 -7.5 -34
t-6 -35t-4 -31t-1.5 -22q0 -44 24 -70.5t70 -26.5q50 0 97 28t85 73t65.5 101t39.5 112l103 483h319zM1127 1325q0 -29 -10.5 -54.5t-30.5 -44t-48.5 -29.5t-63.5 -11t-63.5 11t-48.5 30t-31 44.5t-11 53.5q0 30 11.5 55t32.5 42.5t49 27.5t61 10q34 0 62 -10t48.5 -28
t31.5 -43t11 -54zM670 1325q0 -29 -11 -54.5t-31 -44t-48 -29.5t-63 -11q-34 0 -63 11t-49.5 30t-32 44.5t-11.5 53.5q0 30 12 55t33 42.5t49.5 27.5t61.5 10q34 0 62 -10t48.5 -28t31.5 -43t11 -54z" />
    <glyph glyph-name="dagger" unicode="&#x2020;" horiz-adv-x="831" 
d="M866 868l-266 30l-193 -696h-129l103 696l-280 -30l48 226l287 -30l48 370h239l-108 -370l299 30z" />
    <glyph glyph-name="degree" unicode="&#xb0;" horiz-adv-x="778" 
d="M811 1178q0 -59 -22.5 -110.5t-61.5 -90t-90.5 -60.5t-110.5 -22t-110.5 22t-90 60.5t-61 90t-22.5 110.5t22.5 110t61 89t90 59.5t110.5 21.5t110.5 -21.5t90.5 -59.5t61.5 -89t22.5 -110zM655 1178q0 27 -10.5 50.5t-28 41t-41 27.5t-49.5 10q-27 0 -50.5 -10
t-41 -27.5t-27.5 -41t-10 -50.5q0 -26 10 -50t27.5 -42t41 -28.5t50.5 -10.5q26 0 49.5 10.5t41 28.5t28 42t10.5 50z" />
    <glyph glyph-name="cent" unicode="&#xa2;" horiz-adv-x="1180" 
d="M1065 911q-28 23 -71.5 39.5t-94.5 24.5l-123 -576q54 8 104 25.5t97 46.5l-53 -246q-38 -23 -88 -40t-109 -25l-43 -197h-162l41 189q-95 7 -168 40.5t-122 88.5t-74 129t-25 161q0 174 68.5 307.5t185.5 221.5q74 54 168 85t195 36l43 200h161l-45 -207
q57 -8 101 -20.5t67 -28.5zM737 969q-94 -23 -157 -86q-47 -48 -73 -117t-26 -154q0 -42 10.5 -75t28.5 -58t43 -42t55 -27l119 559v0z" />
    <glyph glyph-name="sterling" unicode="&#xa3;" horiz-adv-x="1180" 
d="M1135 1143q-16 13 -38 25t-48 21t-54 14t-57 5q-91 0 -149 -57t-82 -178l-29 -144h262l-47 -217h-262l-23 -102q-18 -88 -69.5 -155.5t-128.5 -110.5h626l-51 -244h-973l49 229q110 26 168.5 91t81.5 172l27 120h-174l45 217h174l39 183q21 100 67 182t114.5 140.5
t158.5 91t199 32.5q72 0 133 -15t96 -34z" />
    <glyph glyph-name="section" unicode="&#xa7;" horiz-adv-x="995" 
d="M950 1219q-23 14 -53.5 27t-64.5 23t-68 15.5t-64 5.5q-33 0 -61.5 -6t-49 -18t-32.5 -31.5t-12 -46.5q0 -31 13.5 -54t37 -42t56 -36.5l69.5 -37.5q106 -57 157.5 -122.5t51.5 -156.5q0 -61 -22.5 -111t-55.5 -87.5t-70.5 -63.5t-68.5 -41q26 -35 42.5 -76.5t16.5 -91.5
q0 -64 -25.5 -123.5t-78 -105.5t-133 -74t-189.5 -28q-40 0 -84.5 5t-87.5 14t-80.5 22t-62.5 28l49 221q25 -17 57.5 -33t69.5 -28t76 -19.5t77 -7.5q43 0 74 9.5t51 24.5t29.5 34.5t9.5 40.5q0 31 -16.5 55.5t-42 45.5t-57.5 38.5l-64 34.5q-37 21 -71 48t-59.5 61
t-40.5 74.5t-15 88.5q0 63 20 110t50.5 81t67 57.5t69.5 38.5q-28 37 -49 80t-21 100q0 81 32.5 143t89.5 103.5t133.5 62.5t164.5 21q32 0 68.5 -3.5t73.5 -10t72 -17t64 -24.5zM690 694q0 16 -4 32t-17 33.5t-37.5 37t-66.5 41.5q-17 9 -32.5 18.5l-36.5 22.5
q-42 -19 -72.5 -54t-30.5 -80q0 -24 4.5 -42t17.5 -35t36.5 -34.5t60.5 -39.5q17 -11 36.5 -21t39.5 -24q20 10 38.5 24.5t32.5 33.5t22.5 41t8.5 46z" />
    <glyph glyph-name="bullet" unicode="&#x2022;" horiz-adv-x="864" 
d="M717 557q0 -57 -22 -107t-59.5 -87.5t-88 -59.5t-107.5 -22q-56 0 -105.5 22t-87 59.5t-59.5 87.5t-22 107t22 107t59.5 87t87 58.5t105.5 21.5q57 0 107.5 -21.5t88 -58.5t59.5 -87t22 -107z" />
    <glyph glyph-name="paragraph" unicode="&#xb6;" horiz-adv-x="1042" 
d="M877 1272v-1272h-177v1272h-116v-1272h-176v836q-57 3 -106 26.5t-85.5 63.5t-57 94.5t-20.5 118.5q0 67 23.5 121.5t64 93t94.5 59.5t115 21h557v-162h-116z" />
    <glyph glyph-name="germandbls" unicode="&#xdf;" horiz-adv-x="1235" 
d="M1219 1190q0 -63 -16.5 -114t-43.5 -91.5t-62.5 -71.5t-73.5 -53.5t-76 -38t-70 -24.5v-4q74 -15 130.5 -47.5t94.5 -78.5t57 -103.5t19 -123.5q0 -87 -31 -171t-96.5 -149t-166 -105t-239.5 -40q-33 0 -66.5 2.5t-63.5 7.5t-55.5 11.5t-43.5 13.5l55 252
q29 -20 70.5 -32.5t89.5 -12.5q54 0 95.5 19t70 51t43 74.5t14.5 89.5q0 44 -15 83.5t-48 69t-86.5 47t-131.5 17.5l48 225q60 5 110.5 24.5t87 52t56.5 78t20 103.5q0 30 -9.5 56.5t-28 47t-45.5 32t-62 11.5q-79 0 -132.5 -58t-80.5 -189l-224 -1051h-319l227 1065
q23 105 65 192.5t108.5 150.5t160.5 97.5t221 34.5q120 0 204 -30.5t137.5 -80t77.5 -112t24 -127.5z" />
    <glyph glyph-name="sfthyphen" unicode="&#xad;" horiz-adv-x="827" 
d="M666 436h-547l47 221h547z" />
    <glyph glyph-name="registered" unicode="&#xae;" horiz-adv-x="1792" 
d="M1698 717q0 -106 -27 -202t-76 -178.5t-119 -149.5t-155 -114t-184 -72.5t-207 -25.5q-166 0 -306 54.5t-241 152.5t-158 233.5t-57 297.5q0 104 26 200t75 178.5t117.5 150t154.5 116t186 74.5t211 26q159 0 297.5 -53.5t241.5 -150.5t162 -233.5t59 -303.5zM1565 713
q0 137 -48 252.5t-133 199.5t-200.5 131t-249.5 47q-141 0 -258 -49t-200 -134t-129 -199.5t-46 -245.5q0 -139 49.5 -254.5t135 -199t201 -129.5t247.5 -46q129 0 243.5 47t201 130.5t136.5 198.5t50 251zM1071 264l-76 232q-8 25 -19.5 47.5t-25.5 39t-30.5 26t-34.5 9.5
h-74v-354h-211v922h320q110 0 181.5 -23t113.5 -60t58.5 -84t16.5 -95t-16 -87t-44.5 -70t-68.5 -53t-88 -34v-4q41 -9 77 -42t64 -104l111 -266h-254zM1061 899q0 26 -7.5 47t-26 35t-49.5 21.5t-77 7.5h-90v-230h111q36 0 62 10t42.5 26.5t24.5 38t8 44.5h2z" />
    <glyph glyph-name="copyright" unicode="&#xa9;" horiz-adv-x="1792" 
d="M1698 719q0 -106 -27 -202.5t-76 -179t-119 -149.5t-155 -114.5t-184 -73t-207 -25.5q-166 0 -306 54.5t-241 152.5t-158 233.5t-57 297.5q0 104 26 200t75 178.5t117.5 150t154.5 116t186 74.5t211 26q159 0 297.5 -53t241.5 -150t162 -233t59 -303zM1565 715
q0 137 -48 252t-133 198.5t-200.5 130.5t-249.5 47q-141 0 -258 -49t-200 -134t-129 -199.5t-46 -245.5q0 -139 49.5 -254.5t135 -199t201 -129.5t247.5 -46q129 0 243.5 47t201 130.5t136.5 199t50 252.5zM1241 295q-53 -28 -122 -48t-152 -20q-105 0 -194 36t-153.5 99
t-100.5 148.5t-36 185.5q0 119 39.5 213.5t109 160.5t164 101t203.5 35q73 0 134 -16.5t106 -38.5v-236q-42 35 -107 55.5t-137 20.5q-50 0 -98.5 -17t-86.5 -52t-61.5 -88t-23.5 -125q0 -64 22 -115t60 -86t88 -53.5t106 -18.5q32 0 65 5.5t64.5 15.5t60 24t50.5 31v-217v0
z" />
    <glyph glyph-name="trademark" unicode="&#x2122;" horiz-adv-x="1579" 
d="M1333 772v445h-6l-158 -445h-135l-147 445h-4v-445h-148v662h215l158 -453h4l168 453h203v-662h-150zM492 1311v-539h-156v539h-174v123h506v-123h-176z" />
    <glyph glyph-name="acute" unicode="&#xb4;" horiz-adv-x="899" 
d="M610 1186h-235l315 325h289z" />
    <glyph glyph-name="dieresis" unicode="&#xa8;" horiz-adv-x="899" 
d="M989 1325q0 -29 -10.5 -54.5t-30.5 -44t-48.5 -29.5t-63.5 -11t-63.5 11t-48.5 30t-31 44.5t-11 53.5q0 30 11.5 55t32.5 42.5t49 27.5t61 10q34 0 62 -10t48.5 -28t31.5 -43t11 -54zM532 1325q0 -29 -11 -54.5t-31 -44t-48 -29.5t-63 -11q-34 0 -63 11t-49.5 30
t-32 44.5t-11.5 53.5q0 30 12 55t33 42.5t49.5 27.5t61.5 10q34 0 62 -10t48.5 -28t31.5 -43t11 -54z" />
    <glyph glyph-name="notequal" unicode="&#x2260;" horiz-adv-x="1450" 
d="M690 266l-139 -266h-244l139 266h-192v203h299l121 231h-420v205h526l148 283h241l-145 -283h203v-205h-309l-121 -231h430v-203h-537z" />
    <glyph glyph-name="AE" unicode="&#xc6;" horiz-adv-x="1933" 
d="M1950 1171h-504l-68 -323h467l-55 -264h-467l-70 -322h535l-55 -262h-859l68 319h-477l-229 -319h-379l1083 1434h1065zM1071 1174l-418 -588h344l125 588h-51z" />
    <glyph glyph-name="Oslash" unicode="&#xd8;" horiz-adv-x="1554" 
d="M1405 1221q51 -78 78.5 -173t27.5 -210q0 -86 -16 -174.5t-48 -172.5t-80.5 -162t-113.5 -143q-97 -98 -231 -154.5t-315 -56.5q-118 0 -214 35t-165 90l-166 -176l-121 119l172 178q-50 78 -76 170.5t-26 200.5q0 187 64.5 356.5t195.5 296.5q49 48 106.5 86.5t124 66.5
t143.5 43t166 15q115 0 209 -32t166 -85l148 154l118 -117zM1090 1133q-36 32 -90 52.5t-117 20.5q-48 0 -91 -10.5t-80.5 -29.5t-69.5 -44.5t-56 -54.5q-34 -40 -63 -93t-50 -114.5t-33 -128.5t-12 -135q0 -37 4 -68.5t12 -62.5l646 668v0zM1194 834q0 80 -23 143
l-649 -674q40 -40 93.5 -61t119.5 -21q88 0 160 34.5t131 96.5q41 43 72.5 100.5t52.5 121.5t32 131t11 129z" />
    <glyph glyph-name="infinity" unicode="&#x221e;" horiz-adv-x="1663" 
d="M1618 584q0 -81 -29 -153t-80 -126.5t-121.5 -86.5t-154.5 -32q-121 0 -214 63.5t-165 188.5q-32 -51 -73 -95t-89.5 -77t-103 -52t-113.5 -19q-84 0 -154.5 28.5t-121.5 81t-80 127t-29 166.5q0 80 29 152t80 126.5t121.5 86.5t154.5 32q124 0 216 -63.5t163 -188.5
q31 49 70.5 93t87.5 77t104 52.5t119 19.5q83 0 153 -28t121 -80.5t80 -126.5t29 -166zM1389 586q0 40 -13 75t-37.5 61t-59 41t-77.5 15q-65 0 -124.5 -46t-116.5 -146q52 -94 110 -142.5t133 -48.5q42 0 76 14.5t58 40t37.5 60.5t13.5 76zM748 596q-53 94 -110 143
t-134 49q-42 0 -76 -14.5t-58 -40.5t-37.5 -61t-13.5 -76q0 -40 13.5 -75t38 -60.5t59 -40t76.5 -14.5q65 0 125 45t117 145z" />
    <glyph glyph-name="plusminus" unicode="&#xb1;" horiz-adv-x="1450" 
d="M840 694v-387h-203v387h-383v203h383v391h203v-391h387v-203h-387zM252 0v203h971v-203h-971z" />
    <glyph glyph-name="lessequal" unicode="&#x2264;" horiz-adv-x="1450" 
d="M289 647v174l936 418v-238l-668 -264v-4l668 -248v-237zM268 0v203h975v-203h-975z" />
    <glyph glyph-name="greaterequal" unicode="&#x2265;" horiz-adv-x="1450" 
d="M289 248v237l667 246v4l-667 266v238l936 -418v-174zM268 0v203h975v-203h-975z" />
    <glyph glyph-name="yen" unicode="&#xa5;" horiz-adv-x="1180" 
d="M860 793h250l-39 -189h-305l-33 -153h305l-39 -189h-305l-57 -262h-307l55 262h-313l39 189h313l35 153h-316l41 189h256l-207 641h314l106 -490l13 -48t8 -38h4q11 20 24.5 41l30.5 49l307 486h310z" />
    <glyph glyph-name="mu1" unicode="&#xb5;" horiz-adv-x="1262" 
d="M705 193q-31 -46 -66 -85.5t-76 -69t-88.5 -46.5t-104.5 -17q-15 0 -34 1.5t-22 2.5l-26 -120l-26 -120l-28 -129h-308l293 1414h318l-119 -555q-3 -14 -6.5 -32t-6.5 -35.5t-5 -32t-2 -22.5q0 -27 3.5 -49.5t13 -38t27.5 -24t47 -8.5q48 0 94 27t85 72t68.5 105
t43.5 126l99 467h319l-126 -587q-7 -32 -11.5 -69.5t-4.5 -57.5q0 -35 21.5 -53.5t54.5 -18.5q15 0 31.5 2.5t33.5 7.5l-52 -240l-38.5 -9.5t-41.5 -7.5t-54.5 -5t-77.5 -2q-58 0 -100.5 13.5t-70 38.5t-41 59t-13.5 75q0 3 0.5 7t0.5 8v8h-4z" />
    <glyph glyph-name="partialdiff" unicode="&#x2202;" horiz-adv-x="1182" 
d="M1149 911q0 -51 -4 -105.5t-10.5 -108.5t-16.5 -105.5t-22 -97.5q-28 -105 -77 -199.5t-122.5 -165.5t-173 -112.5t-229.5 -41.5q-104 0 -183 30.5t-132 86t-80 133.5t-27 172q0 74 14.5 149t44 144.5t72.5 129.5t100.5 104.5t128 70t154.5 25.5q88 0 151.5 -35
t108.5 -106h4v39q0 77 -12 140t-40.5 108.5t-75.5 70.5t-118 25q-34 0 -71.5 -6.5t-73.5 -17t-68 -23.5t-55 -25l63 250q28 12 61.5 23.5t70 19.5t75.5 13t78 5q139 0 229 -46.5t142.5 -126.5t73 -187.5t20.5 -229.5zM809 645q-19 69 -59 111.5t-99 42.5t-107.5 -36
t-83.5 -92.5t-54 -126t-19 -136.5q0 -94 40 -142.5t105 -48.5q53 0 98 32t81 89t61 135.5t37 171.5z" />
    <glyph glyph-name="summation" unicode="&#x2211;" horiz-adv-x="1315" 
d="M84 -471v174l604 789l-579 757v185h1159v-265h-707l500 -669l-529 -711h768v-260h-1216z" />
    <glyph glyph-name="product" unicode="&#x220f;" horiz-adv-x="1620" 
d="M1182 -471v1622h-664v-1622h-323v1905h1310v-1905h-323z" />
    <glyph glyph-name="integral" unicode="&#x222b;" horiz-adv-x="1180" 
d="M1047 1274q-22 9 -52.5 16.5t-64.5 7.5q-72 0 -112 -42.5t-40 -122.5v-1231q0 -81 -27 -152.5t-80 -124.5t-132 -83.5t-183 -30.5q-21 0 -43 1.5t-43.5 4.5t-40 6.5t-32.5 7.5v246q21 -10 50.5 -17.5t63.5 -7.5q75 0 113.5 44t38.5 122v1233q0 81 27 152t80.5 123.5
t132.5 83t184 30.5q42 0 87 -6t73 -14v-246v0z" />
    <glyph glyph-name="ordfeminine" unicode="&#xaa;" horiz-adv-x="961" 
d="M909 952q-4 -21 -9 -52.5t-9.5 -64.5t-7 -65t-2.5 -55h-238q0 11 1 27t2.5 33.5t3.5 34t3 28.5h-4q-45 -62 -107 -102t-143 -40q-48 0 -88.5 16.5t-69.5 51t-45 87t-16 124.5q0 32 7.5 80t27.5 101.5t55 106.5t90 95.5t133 69t183 26.5q40 0 84.5 -3t89 -8.5t85.5 -12
t73 -13.5zM741 1284q-17 5 -38.5 7.5t-38.5 2.5q-46 0 -82 -15.5t-63.5 -40.5t-46 -57.5t-30.5 -65.5t-17 -65t-5 -57q0 -52 21 -87.5t69 -35.5q40 0 72.5 25t57 62.5t41.5 82t26 84.5l34 160v0z" />
    <glyph glyph-name="ordmasculine" unicode="&#xba;" horiz-adv-x="934" 
d="M977 1135q0 -88 -31 -168t-88.5 -140t-140.5 -95.5t-187 -35.5q-86 0 -153 24.5t-113.5 69t-71 106.5t-24.5 136q0 84 31 160t88.5 134.5t139 93t181.5 34.5q101 0 171 -26t114 -70.5t64 -102t20 -120.5zM737 1122q0 69 -34.5 113.5t-108.5 44.5q-41 0 -75.5 -19.5
t-59.5 -53.5t-39 -81t-14 -102q0 -71 38 -112.5t101 -41.5q48 0 84 23t60 59.5t36 81.5t12 88z" />
    <glyph glyph-name="Ohm" unicode="&#x2126;" horiz-adv-x="1583" 
d="M1570 898q0 -118 -36 -217t-98.5 -179t-146 -140.5t-179.5 -101.5h332l-55 -260h-600l64 306q83 42 151 97t116 124t74 152t26 182q0 66 -20.5 124t-60.5 101t-99 68t-135 25q-84 0 -162 -30t-138 -90t-95.5 -151t-35.5 -213q0 -67 12.5 -123t35 -104t53 -88t66.5 -74
l-65 -306h-599l54 260h352q-46 32 -92 80.5t-82.5 110t-59 135.5t-22.5 158q0 172 63 305t171 224t252.5 138t307.5 47q146 0 266 -41t205.5 -114.5t132.5 -176.5t47 -228z" />
    <glyph glyph-name="ae" unicode="&#xe6;" horiz-adv-x="1761" 
d="M1747 760q0 -79 -33.5 -145t-112.5 -114t-209.5 -75.5t-324.5 -30.5v-18q0 -31 10 -62.5t34 -57t64 -41t101 -15.5q36 0 78.5 6.5t86.5 19t87.5 30t81.5 38.5l-49 -236q-31 -16 -71.5 -31t-87.5 -27t-99 -19t-107 -7q-145 0 -247 60.5t-144 179.5h-4q-33 -45 -74 -88.5
t-91 -77t-111 -54t-134 -20.5q-74 0 -135 26.5t-104.5 76t-67 121t-23.5 161.5q0 52 12.5 123.5t43.5 148t82 151.5t128.5 134t183 95.5t245.5 36.5q108 0 196.5 -21t147.5 -43q60 32 130.5 48t147.5 16q91 0 160 -22t115.5 -61t70 -91.5t23.5 -114.5zM1444 756
q0 37 -27.5 61.5t-75.5 24.5q-43 0 -82.5 -18t-73 -51t-58 -79.5t-37.5 -103.5q180 -2 267 41.5t87 124.5zM870 807q-20 8 -51.5 14t-60.5 6q-72 0 -128.5 -23t-98.5 -61t-71 -86t-47 -97.5t-26 -96.5t-8 -82q0 -75 28 -119.5t80 -44.5q40 0 77.5 24t72 67t66.5 102t61 129
q4 11 15.5 46l26.5 77t32 82.5t32 62.5z" />
    <glyph glyph-name="oslash" unicode="&#xf8;" horiz-adv-x="1178" 
d="M1061 848q55 -95 55 -230q0 -73 -14.5 -149t-45 -147.5t-78.5 -134.5t-115.5 -110t-155.5 -74.5t-199 -27.5q-91 0 -163.5 22t-125.5 64l-137 -127l-102 119l135 127q-28 50 -41 107.5t-13 120.5q0 74 14.5 150t46 147t80 133.5t116 109.5t156 74t198.5 27q88 0 157 -22
t123 -62l158 147l102 -121zM758 782q-40 43 -107 43q-73 0 -130 -32.5t-96.5 -87t-60 -126.5t-20.5 -151q0 -8 1 -15.5t1 -15.5l412 385v0zM831 600v18.5t-2 18.5l-413 -389q20 -22 49 -35.5t63 -13.5q75 0 131.5 32t94.5 87t57.5 128t19.5 154z" />
    <glyph glyph-name="questiondown" unicode="&#xbf;" horiz-adv-x="920" 
d="M770 895q0 -37 -14.5 -68.5t-40 -54t-60 -35t-75.5 -12.5q-39 0 -71.5 11.5t-56.5 32.5t-37.5 49.5t-13.5 62.5q0 38 15 70t41 54.5t61 35t76 12.5q38 0 70.5 -11.5t56 -32.5t36.5 -50t13 -64zM662 -371q-31 -14 -70.5 -26.5t-83 -22t-90 -15t-90.5 -5.5
q-108 0 -184.5 28t-126 74.5t-72.5 108t-23 127.5q0 58 16 112.5t51 105.5t89.5 100t132.5 97q51 32 85 62t56.5 63.5t36.5 71.5t23 86h260q-13 -65 -29 -121t-41.5 -104.5t-62.5 -90t-93 -79.5q-54 -37 -93.5 -68.5t-65 -60.5t-37.5 -57.5t-12 -59.5q0 -68 46.5 -103.5
t121.5 -35.5q80 0 160 26t145 66z" />
    <glyph glyph-name="nonbreakingspace" unicode="&#xa0;" horiz-adv-x="563" 
 />
    <glyph glyph-name="exclamdown" unicode="&#xa1;" horiz-adv-x="709" 
d="M606 895q0 -37 -14.5 -68.5t-40 -54t-60 -35t-75.5 -12.5q-38 0 -70.5 11.5t-56.5 32.5t-37.5 49.5t-13.5 62.5q0 38 15 70t40.5 54.5t61 35t75.5 12.5q38 0 70.5 -11.5t56 -32.5t36.5 -50t13 -64zM324 -403h-330l248 989h256z" />
    <glyph glyph-name="logicalnot" unicode="&#xac;" horiz-adv-x="1450" 
d="M1016 266v389h-772v203h975v-592h-203z" />
    <glyph glyph-name="radical" unicode="&#x221a;" horiz-adv-x="1331" 
d="M819 -2h-196l-320 731h-182v168h350l242 -569l317 1188h197z" />
    <glyph glyph-name="florin" unicode="&#x192;" horiz-adv-x="1180" 
d="M1104 1188q-25 14 -55.5 24.5t-65.5 10.5q-57 0 -96.5 -36.5t-55.5 -101.5l-32 -137h178l-51 -215h-174l-134 -583q-26 -118 -64 -199.5t-87.5 -132t-111.5 -72.5t-136 -22q-40 0 -86.5 8t-77.5 20l33 211q22 -12 42.5 -19t43.5 -7q26 0 48.5 8.5t42 31t36.5 62.5t31 104
l133 590h-133l51 215h129l35 148q37 170 142.5 260t264.5 90q53 0 105.5 -10.5t89.5 -26.5z" />
    <glyph glyph-name="approxequal" unicode="&#x2248;" horiz-adv-x="1450" 
d="M1270 997q-3 -81 -25 -148t-62 -115t-97 -74.5t-130 -26.5q-39 0 -71.5 6.5t-62.5 18.5t-60 28l-64 35q-38 23 -77.5 43t-77.5 20q-33 0 -56.5 -12.5t-39.5 -34.5t-23.5 -50t-9.5 -60h-205q3 74 22.5 140t58 115.5t97 78t139.5 28.5q38 0 70 -6t60.5 -16.5t55 -24.5
l52.5 -29l54 -31.5t45 -23.5t40.5 -15t40.5 -5q27 0 49 12t38 33.5t24.5 50.5t9.5 63h205v0zM1270 549q-3 -81 -25 -148t-62 -115t-97 -75t-130 -27q-39 0 -71.5 6.5t-62.5 18.5t-60 28.5l-64 36.5l-77.5 43t-77.5 21q-33 0 -56.5 -13t-39.5 -35.5t-23.5 -52t-9.5 -61.5
h-205q3 75 22.5 141.5t58 116.5t97 79.5t139.5 29.5q38 0 70 -6t60.5 -16.5t55 -24.5l52.5 -29l54 -32.5t45 -24.5t40.5 -15.5t40.5 -5.5q27 0 49 12.5t38 34t24.5 50.5t9.5 63h205v0z" />
    <glyph glyph-name="Delta" unicode="&#x394;" horiz-adv-x="1510" 
d="M1325 0h-1358l29 130l765 1304h395l196 -1304zM915 1016q-2 15 -3.5 39.5t-1.5 47.5q0 20 0.5 39.5t1.5 28.5h-8l-21 -51t-37 -76l-437 -782h605z" />
    <glyph glyph-name="guillemotleft" unicode="&#xab;" horiz-adv-x="1200" 
d="M821 520l248 -323h-262l-256 340l373 340h284zM326 520l247 -323h-260l-258 340l375 340h283z" />
    <glyph glyph-name="guillemotright" unicode="&#xbb;" horiz-adv-x="1200" 
d="M770 201h-283l387 356l-247 324h260l258 -340zM276 201h-284l387 356l-248 324h262l256 -340z" />
    <glyph glyph-name="ellipsis" unicode="&#x2026;" horiz-adv-x="1872" 
d="M1667 150q0 -39 -15 -70.5t-40.5 -54.5t-60 -35.5t-74.5 -12.5q-39 0 -71.5 12t-56.5 33t-37.5 49.5t-13.5 61.5q0 39 15 71.5t41 55t61 35t76 12.5q38 0 70 -12t55.5 -33t37 -49.5t13.5 -62.5zM1044 150q0 -39 -14.5 -70.5t-40 -54.5t-60.5 -35.5t-75 -12.5
q-38 0 -70.5 12t-56.5 33t-37.5 49.5t-13.5 61.5q0 39 15 71.5t40.5 55t61 35t75.5 12.5q39 0 71 -12t55.5 -33t36.5 -49.5t13 -62.5zM422 150q0 -39 -14.5 -70.5t-40 -54.5t-60.5 -35.5t-76 -12.5q-37 0 -69.5 12t-56.5 33t-38 49.5t-14 61.5q0 39 15 71.5t41 55t61 35
t76 12.5q38 0 70.5 -12t56 -33t36.5 -49.5t13 -62.5z" />
    <glyph glyph-name="Agrave" unicode="&#xc0;" horiz-adv-x="1440" 
d="M985 0l-41 319h-514l-168 -319h-364l827 1434h385l205 -1434h-330zM868 1051q-1 16 -1.5 35.5t0 37.5t1.5 32.5t2 21.5h-6q-2 -9 -7 -23t-11.5 -30.5t-15 -34.5t-17.5 -35l-262 -488h369zM923 1566l-260 325h264l209 -325h-213z" />
    <glyph glyph-name="Atilde" unicode="&#xc3;" horiz-adv-x="1440" 
d="M985 0l-41 319h-514l-168 -319h-364l827 1434h385l205 -1434h-330zM868 1051q-1 16 -1.5 35.5t0 37.5t1.5 32.5t2 21.5h-6q-2 -9 -7 -23t-11.5 -30.5t-15 -34.5t-17.5 -35l-262 -488h369zM1323 1868q-10 -72 -34 -125t-58.5 -88t-77 -52.5t-90.5 -17.5q-51 0 -86.5 13
t-63 28l-52 28t-54.5 13q-25 0 -44 -8.5t-32 -22.5t-21 -32t-11 -37h-154q7 61 28.5 112.5t55 89t79 59t101.5 21.5q50 0 83 -13t60 -28t53 -28t60 -13q41 0 68.5 26.5t34.5 74.5h155v0z" />
    <glyph glyph-name="Otilde" unicode="&#xd5;" horiz-adv-x="1554" 
d="M1511 842q0 -86 -15 -173t-44.5 -168.5t-74 -156.5t-103.5 -137q-50 -53 -109 -96t-128.5 -73t-150.5 -46.5t-175 -16.5q-142 0 -253.5 47t-188.5 129.5t-117.5 195.5t-40.5 245q0 93 16 183.5t48.5 174t81 159t112.5 138.5q50 48 108 86.5t125 66.5t144 43t165 15
q133 0 243.5 -42t189.5 -121.5t123 -194t44 -258.5zM1169 831q0 81 -20.5 145t-58.5 108.5t-92.5 68t-123.5 23.5q-80 0 -152 -37t-128 -103q-34 -40 -60 -92t-44 -110t-27.5 -118.5t-9.5 -119.5q0 -81 20.5 -145t58.5 -107.5t91.5 -66.5t119.5 -23q82 0 156.5 36t130.5 107
q35 42 61 94.5t43 109.5t26 116t9 114zM1339 1866q-10 -72 -34 -125t-58.5 -88t-77 -52.5t-90.5 -17.5q-51 0 -86.5 13t-63 28l-52 28t-54.5 13q-25 0 -44 -8.5t-32 -22.5t-21 -32t-11 -37h-154q7 61 28.5 112.5t55 89t79 59t101.5 21.5q50 0 83 -13t60 -28t53 -28t60 -13
q41 0 68.5 26.5t34.5 74.5h155v0z" />
    <glyph glyph-name="OE" unicode="&#x152;" horiz-adv-x="1876" 
d="M1913 1171h-502l-68 -323h467l-55 -264h-467l-69 -322h534l-55 -262h-723q-29 0 -63.5 -4l-71.5 -8.5t-75 -8.5t-75 -4q-115 0 -220 40t-184.5 119t-127 195.5t-47.5 270.5q0 93 15 182.5t45.5 173t78 158t112.5 137.5q51 49 108 87.5t123 65t141.5 40.5t162.5 14
q45 0 88.5 -3.5t82.5 -8l73 -8.5t61 -4h768zM1081 1143q-28 14 -77.5 23.5t-124.5 9.5q-84 0 -156 -36.5t-125 -99.5q-33 -40 -60 -91.5t-45.5 -110t-29 -121.5t-10.5 -125q0 -77 20 -139.5t57.5 -106.5t91.5 -68t123 -24q47 0 85 7t69 15l182 867v0z" />
    <glyph glyph-name="oe" unicode="&#x153;" horiz-adv-x="1778" 
d="M1763 760q0 -79 -33 -145t-112 -114t-209 -75.5t-324 -30.5q-2 -6 -2 -11.5v-10.5q0 -29 10 -59.5t34 -55.5t64 -41t101 -16q36 0 79 6.5t87 19t87.5 30t80.5 38.5l-49 -236q-59 -34 -143.5 -59t-190.5 -25q-73 0 -130.5 15t-101.5 40t-75 57.5t-49 66.5h-4
q-65 -84 -165.5 -131.5t-217.5 -47.5q-115 0 -198 36.5t-136.5 97.5t-79 139t-25.5 160q0 134 40.5 251t114.5 203.5t179 136.5t234 50q67 0 121 -14t97 -39t75.5 -59.5t56.5 -74.5h4q35 40 77.5 74.5t93 59.5t108.5 39t122 14q105 0 177.5 -26t117.5 -67.5t64.5 -93
t19.5 -102.5zM1462 754q0 38 -27.5 63t-76.5 25q-42 0 -81.5 -17.5t-73.5 -50.5t-59.5 -79.5t-37.5 -104.5q98 -1 166 11.5t110 34.5t61 52t19 66zM795 614q0 43 -9.5 78.5t-28 61t-46.5 39.5t-66 14q-63 0 -112.5 -36t-83.5 -93t-52 -128t-18 -142q0 -91 42.5 -141
t110.5 -50q65 0 114 35t82 91.5t50 127.5t17 143z" />
    <glyph glyph-name="endash" unicode="&#x2013;" horiz-adv-x="1024" 
d="M-20 436l47 221h1024l-47 -221h-1024z" />
    <glyph glyph-name="emdash" unicode="&#x2014;" horiz-adv-x="2048" 
d="M-20 436l47 221h2048l-47 -221h-2048z" />
    <glyph glyph-name="quotedblleft" unicode="&#x201c;" horiz-adv-x="1010" 
d="M885 1008h-252l213 444h196zM471 1008h-254l213 444h197z" />
    <glyph glyph-name="quotedblright" unicode="&#x201d;" horiz-adv-x="1010" 
d="M856 1008h-194l157 444h252zM442 1008h-194l158 444h251z" />
    <glyph glyph-name="quoteleft" unicode="&#x2018;" horiz-adv-x="596" 
d="M471 1008h-254l213 444h199z" />
    <glyph glyph-name="quoteright" unicode="&#x2019;" horiz-adv-x="596" 
d="M442 1008h-194l158 444h251z" />
    <glyph glyph-name="divide" unicode="&#xf7;" horiz-adv-x="1450" 
d="M885 985q0 -33 -12 -59t-31.5 -43.5t-44 -27t-49.5 -9.5q-29 0 -55 10.5t-45.5 29.5t-30.5 44t-11 53q0 29 10 55.5t28.5 46.5t45 31.5t58.5 11.5q31 0 56.5 -10.5t43.5 -29.5t27.5 -45t9.5 -58zM254 485v203h975v-203h-975zM881 184q0 -33 -12 -58.5t-31.5 -43
t-44 -26.5t-50.5 -9q-29 0 -54.5 10.5t-45 28.5t-30.5 43t-11 53q0 29 10 55.5t28.5 46.5t44.5 32t58 12t57.5 -11t43.5 -30.5t27.5 -45.5t9.5 -57z" />
    <glyph glyph-name="lozenge" unicode="&#x25ca;" horiz-adv-x="1202" 
d="M686 0h-115l-469 715l469 719h115l473 -717zM631 1188l-299 -471l299 -471l299 471z" />
    <glyph glyph-name="ydieresis" unicode="&#xff;" horiz-adv-x="1102" 
d="M551 -90q-51 -89 -105.5 -161.5t-118.5 -123.5t-141.5 -78.5t-175.5 -27.5q-34 0 -81.5 6.5t-88.5 21.5l54 244q21 -15 52 -23t62 -8q59 0 110 27.5t89 89.5l82 129l-199 1018h332l72 -623q3 -34 4 -73t-2 -64h4l23 62t34 75l313 623h332zM1051 1325q0 -29 -10.5 -54.5
t-30.5 -44t-48.5 -29.5t-63.5 -11t-63.5 11t-48.5 30t-31 44.5t-11 53.5q0 30 11.5 55t32.5 42.5t49 27.5t61 10q34 0 62 -10t48.5 -28t31.5 -43t11 -54zM594 1325q0 -29 -11 -54.5t-31 -44t-48 -29.5t-63 -11q-34 0 -63 11t-49.5 30t-32 44.5t-11.5 53.5q0 30 12 55
t33 42.5t49.5 27.5t61.5 10q34 0 62 -10t48.5 -28t31.5 -43t11 -54z" />
    <glyph glyph-name="Ydieresis" unicode="&#x178;" horiz-adv-x="1245" 
d="M776 520l-108 -520h-326l109 514l-258 920h350l114 -545q8 -34 9.5 -63t3.5 -52h2q11 28 24.5 57t28.5 54l350 549h363zM1203 1707q0 -29 -10.5 -54.5t-30.5 -44t-48.5 -29.5t-63.5 -11t-63.5 11t-48.5 30t-31 44.5t-11 53.5q0 30 11.5 55t32.5 42.5t49 27.5t61 10
q34 0 62 -10t48.5 -28t31.5 -43t11 -54zM746 1707q0 -29 -11 -54.5t-31 -44t-48 -29.5t-63 -11q-34 0 -63 11t-49.5 30t-32 44.5t-11.5 53.5q0 30 12 55t33 42.5t49.5 27.5t61.5 10q34 0 62 -10t48.5 -28t31.5 -43t11 -54z" />
    <glyph glyph-name="fraction" unicode="&#x2044;" horiz-adv-x="659" 
d="M-102 0h-244l1196 1434h244z" />
    <glyph glyph-name="fraction" unicode="&#x2215;" horiz-adv-x="659" 
d="M-102 0h-244l1196 1434h244z" />
    <glyph glyph-name="Euro" unicode="&#x20ac;" horiz-adv-x="1180" 
d="M1217 1128q-23 19 -48.5 36.5t-55.5 31t-64.5 21.5t-75.5 8q-75 0 -138 -19.5t-113.5 -55t-89 -86t-65.5 -112.5h475l-36 -168h-502q-9 -40 -14.5 -79.5t-8.5 -79.5h490l-35 -170h-449q10 -64 35 -111t61 -77.5t82.5 -45t100.5 -14.5q74 0 141.5 21t139.5 63l-46 -256
q-71 -31 -139.5 -45.5t-146.5 -14.5q-117 0 -209 34.5t-158 97.5t-104 151.5t-47 196.5h-154l35 170h112l8 78.5t13 80.5h-98l34 168h111q42 113 109.5 206t159.5 160t206.5 103.5t249.5 36.5q46 0 89.5 -5t81 -13t67.5 -18.5t49 -22.5z" />
    <glyph glyph-name="guilsinglleft" unicode="&#x2039;" horiz-adv-x="705" 
d="M328 520l247 -323h-262l-256 340l373 340h285z" />
    <glyph glyph-name="guilsinglright" unicode="&#x203a;" horiz-adv-x="705" 
d="M276 201h-284l387 356l-248 324h262l256 -340z" />
    <glyph glyph-name="fi" unicode="&#xfb01;" horiz-adv-x="1417" 
d="M940 1270q-28 11 -61.5 19.5t-65.5 8.5q-71 0 -109 -39t-57 -122l-24 -113h233l-49 -233h-238l-243 -1131h-316l242 1131h-174l51 233h172l33 147q42 187 156.5 278t310.5 91q51 0 102.5 -8t85.5 -19zM1406 1354q0 -39 -15 -70t-40.5 -53.5t-60 -34.5t-74.5 -12
q-38 0 -70.5 11.5t-56 32t-37 48.5t-13.5 61q0 39 14.5 70t40 53.5t60.5 34.5t76 12q38 0 70 -11.5t55.5 -32t37 -48.5t13.5 -61zM1302 9q-18 -5 -41.5 -10t-50 -9.5t-55 -7t-56.5 -2.5q-67 0 -114.5 17.5t-78.5 49t-45.5 75t-14.5 95.5q0 22 2.5 49t6.5 56.5t9.5 60
t11.5 58.5q4 17 13.5 62.5l22 104.5l26.5 124.5l26.5 124.5l22 104.5t13.5 62.5h320l-122 -576q-8 -35 -17 -78.5t-9 -75.5q0 -38 24 -53t55 -15q26 0 52.5 5.5t48.5 14.5l-25 -118.5z" />
    <glyph glyph-name="fl" unicode="&#xfb02;" horiz-adv-x="1417" 
d="M940 1270q-28 11 -61.5 19.5t-65.5 8.5q-71 0 -109 -39t-57 -122l-24 -113h233l-49 -233h-238l-243 -1131h-316l242 1131h-174l51 233h172l33 147q42 187 156.5 278t310.5 91q51 0 102.5 -8t85.5 -19zM1302 9q-18 -5 -41.5 -10t-50 -9.5t-55 -7t-56.5 -2.5
q-67 0 -114.5 17.5t-78.5 49t-45.5 75t-14.5 95.5q0 22 2.5 49t6.5 56.5t9.5 60t11.5 58.5q3 13 13.5 63.5l26.5 124.5l35 164.5l39.5 185l39.5 185l35 164.5l26.5 124.5t13.5 63.5h320l-227 -1068q-8 -35 -17 -78.5t-9 -75.5q0 -38 24 -53t55 -15q26 0 52.5 5.5t48.5 14.5
l-25 -118.5z" />
    <glyph glyph-name="daggerdbl" unicode="&#x2021;" horiz-adv-x="831" 
d="M785 482l-292 30l-30 -310h-239l100 310l-303 -30l47 226l262 -30l63 140l-4 140l-274 -30l48 226l292 -30l30 310h239l-100 -310l304 30l-48 -226l-262 30l-62 -140l3 -140l274 30z" />
    <glyph glyph-name="periodcentered" unicode="&#xb7;" horiz-adv-x="555" 
d="M492 659q0 -38 -15 -70t-41 -54.5t-61 -35t-76 -12.5q-37 0 -69.5 11.5t-56 32.5t-37 49.5t-13.5 62.5q0 38 14.5 70t40 54.5t61 35t76.5 12.5q38 0 70.5 -11.5t56 -32.5t37 -49.5t13.5 -62.5z" />
    <glyph glyph-name="quotesinglbase" unicode="&#x201a;" horiz-adv-x="596" 
d="M178 -225h-194l157 444h250z" />
    <glyph glyph-name="quotedblbase" unicode="&#x201e;" horiz-adv-x="1010" 
d="M592 -227h-195l158 444h252zM178 -227h-194l157 444h250z" />
    <glyph glyph-name="perthousand" unicode="&#x2030;" horiz-adv-x="2591" 
d="M2497 420q0 -45 -9.5 -95.5t-29.5 -99.5t-52 -93.5t-76 -78t-102 -53.5t-131 -20q-90 0 -151.5 28.5t-99.5 73t-55 99.5t-17 108q0 43 9.5 92t29.5 98t52 93.5t77.5 79t105 55t135.5 20.5q75 0 133.5 -22t98.5 -62t61 -96.5t21 -126.5zM1686 420q0 -45 -9.5 -95.5
t-30 -99.5t-52 -93.5t-76 -78t-102.5 -53.5t-130 -20q-90 0 -151.5 28.5t-99.5 73t-55 99.5t-17 108q0 43 9 92t29.5 98t52 93.5t77 79t105 55t134.5 20.5t134 -22t99.5 -62t61.5 -96.5t21 -126.5zM428 0h-246l1239 1434h246zM893 1149q0 -69 -22 -146.5t-70.5 -143.5
t-124.5 -109t-184 -43q-90 0 -151.5 29t-99.5 74t-54.5 100t-16.5 108q0 43 9.5 92t29.5 97.5t52 93t77 78.5t105 54.5t135 20.5t133.5 -22t99 -61.5t61.5 -96t21 -125.5zM2284 416q0 24 -5.5 48.5t-18.5 44t-34 32t-53 12.5q-48 0 -82 -26.5t-56.5 -66t-33 -85.5t-10.5 -86
q0 -28 7 -52.5t21 -43t35.5 -29t50.5 -10.5q44 0 77.5 24t56 62t34 84.5t11.5 91.5zM1470 416q0 24 -5.5 48.5t-18 44t-33 32t-51.5 12.5q-48 0 -82.5 -26.5t-57 -66t-33.5 -85.5t-11 -86q0 -28 7 -52.5t21 -43t35.5 -29t50.5 -10.5q44 0 77 24t55.5 62t34 84.5t11.5 91.5z
M678 1143q0 25 -5.5 50t-18 44.5t-33.5 32t-52 12.5q-48 0 -82.5 -26.5t-57 -66t-33.5 -85.5t-11 -86q0 -28 7 -53t21.5 -44t36 -29.5t50.5 -10.5q44 0 77 24.5t55.5 62.5t34 84.5t11.5 90.5z" />
    <glyph glyph-name="Acircumflex" unicode="&#xc2;" horiz-adv-x="1440" 
d="M985 0l-41 319h-514l-168 -319h-364l827 1434h385l205 -1434h-330zM868 1051q-1 16 -1.5 35.5t0 37.5t1.5 32.5t2 21.5h-6q-2 -9 -7 -23t-11.5 -30.5t-15 -34.5t-17.5 -35l-262 -488h369zM1084 1564l-116 190l-197 -190h-211l303 327h250l168 -327h-197z" />
    <glyph glyph-name="Ecircumflex" unicode="&#xca;" horiz-adv-x="1085" 
d="M1124 1171h-501l-68 -323h467l-57 -264h-465l-70 -322h535l-56 -262h-860l305 1434h826zM947 1565l-116 190l-197 -190h-211l303 327h250l168 -327h-197z" />
    <glyph glyph-name="Aacute" unicode="&#xc1;" horiz-adv-x="1440" 
d="M985 0l-41 319h-514l-168 -319h-364l827 1434h385l205 -1434h-330zM868 1051q-1 16 -1.5 35.5t0 37.5t1.5 32.5t2 21.5h-6q-2 -9 -7 -23t-11.5 -30.5t-15 -34.5t-17.5 -35l-262 -488h369zM944 1566h-235l315 325h289z" />
    <glyph glyph-name="Edieresis" unicode="&#xcb;" horiz-adv-x="1085" 
d="M1124 1171h-501l-68 -323h467l-57 -264h-465l-70 -322h535l-56 -262h-860l305 1434h826zM1176 1706q0 -29 -10.5 -54.5t-30.5 -44t-48.5 -29.5t-63.5 -11t-63.5 11t-48.5 30t-31 44.5t-11 53.5q0 30 11.5 55t32.5 42.5t49 27.5t61 10q34 0 62 -10t48.5 -28t31.5 -43
t11 -54zM719 1706q0 -29 -11 -54.5t-31 -44t-48 -29.5t-63 -11q-34 0 -63 11t-49.5 30t-32 44.5t-11.5 53.5q0 30 12 55t33 42.5t49.5 27.5t61.5 10q34 0 62 -10t48.5 -28t31.5 -43t11 -54z" />
    <glyph glyph-name="Egrave" unicode="&#xc8;" horiz-adv-x="1085" 
d="M1124 1171h-501l-68 -323h467l-57 -264h-465l-70 -322h535l-56 -262h-860l305 1434h826zM796 1565l-260 325h264l209 -325h-213z" />
    <glyph glyph-name="Iacute" unicode="&#xcd;" horiz-adv-x="649" 
d="M375 0h-326l303 1434h326zM543 1565h-235l315 325h289z" />
    <glyph glyph-name="Icircumflex" unicode="&#xce;" horiz-adv-x="649" 
d="M375 0h-326l303 1434h326zM689 1565l-116 190l-197 -190h-211l303 327h250l168 -327h-197z" />
    <glyph glyph-name="Idieresis" unicode="&#xcf;" horiz-adv-x="649" 
d="M375 0h-326l303 1434h326zM922 1706q0 -29 -10.5 -54.5t-30.5 -44t-48.5 -29.5t-63.5 -11t-63.5 11t-48.5 30t-31 44.5t-11 53.5q0 30 11.5 55t32.5 42.5t49 27.5t61 10q34 0 62 -10t48.5 -28t31.5 -43t11 -54zM465 1706q0 -29 -11 -54.5t-31 -44t-48 -29.5t-63 -11
q-34 0 -63 11t-49.5 30t-32 44.5t-11.5 53.5q0 30 12 55t33 42.5t49.5 27.5t61.5 10q34 0 62 -10t48.5 -28t31.5 -43t11 -54z" />
    <glyph glyph-name="Igrave" unicode="&#xcc;" horiz-adv-x="649" 
d="M375 0h-326l303 1434h326zM554 1566l-260 325h264l209 -325h-213z" />
    <glyph glyph-name="Oacute" unicode="&#xd3;" horiz-adv-x="1554" 
d="M1511 842q0 -86 -15 -173t-44.5 -168.5t-74 -156.5t-103.5 -137q-50 -53 -109 -96t-128.5 -73t-150.5 -46.5t-175 -16.5q-142 0 -253.5 47t-188.5 129.5t-117.5 195.5t-40.5 245q0 93 16 183.5t48.5 174t81 159t112.5 138.5q50 48 108 86.5t125 66.5t144 43t165 15
q133 0 243.5 -42t189.5 -121.5t123 -194t44 -258.5zM1169 831q0 81 -20.5 145t-58.5 108.5t-92.5 68t-123.5 23.5q-80 0 -152 -37t-128 -103q-34 -40 -60 -92t-44 -110t-27.5 -118.5t-9.5 -119.5q0 -81 20.5 -145t58.5 -107.5t91.5 -66.5t119.5 -23q82 0 156.5 36t130.5 107
q35 42 61 94.5t43 109.5t26 116t9 114zM925 1566h-235l315 325h289z" />
    <glyph glyph-name="Ocircumflex" unicode="&#xd4;" horiz-adv-x="1554" 
d="M1511 842q0 -86 -15 -173t-44.5 -168.5t-74 -156.5t-103.5 -137q-50 -53 -109 -96t-128.5 -73t-150.5 -46.5t-175 -16.5q-142 0 -253.5 47t-188.5 129.5t-117.5 195.5t-40.5 245q0 93 16 183.5t48.5 174t81 159t112.5 138.5q50 48 108 86.5t125 66.5t144 43t165 15
q133 0 243.5 -42t189.5 -121.5t123 -194t44 -258.5zM1169 831q0 81 -20.5 145t-58.5 108.5t-92.5 68t-123.5 23.5q-80 0 -152 -37t-128 -103q-34 -40 -60 -92t-44 -110t-27.5 -118.5t-9.5 -119.5q0 -81 20.5 -145t58.5 -107.5t91.5 -66.5t119.5 -23q82 0 156.5 36t130.5 107
q35 42 61 94.5t43 109.5t26 116t9 114zM1064 1567l-116 190l-197 -190h-211l303 327h250l168 -327h-197z" />
    <glyph glyph-name="Ograve" unicode="&#xd2;" horiz-adv-x="1554" 
d="M1511 842q0 -86 -15 -173t-44.5 -168.5t-74 -156.5t-103.5 -137q-50 -53 -109 -96t-128.5 -73t-150.5 -46.5t-175 -16.5q-142 0 -253.5 47t-188.5 129.5t-117.5 195.5t-40.5 245q0 93 16 183.5t48.5 174t81 159t112.5 138.5q50 48 108 86.5t125 66.5t144 43t165 15
q133 0 243.5 -42t189.5 -121.5t123 -194t44 -258.5zM1169 831q0 81 -20.5 145t-58.5 108.5t-92.5 68t-123.5 23.5q-80 0 -152 -37t-128 -103q-34 -40 -60 -92t-44 -110t-27.5 -118.5t-9.5 -119.5q0 -81 20.5 -145t58.5 -107.5t91.5 -66.5t119.5 -23q82 0 156.5 36t130.5 107
q35 42 61 94.5t43 109.5t26 116t9 114zM907 1565l-260 325h264l209 -325h-213z" />
    <glyph glyph-name="Uacute" unicode="&#xda;" horiz-adv-x="1481" 
d="M1343 584q-30 -141 -77 -254t-124.5 -192t-192.5 -121t-281 -42q-120 0 -216 33t-163 95.5t-103 152t-36 203.5q0 52 8 114.5t20 116.5l160 744h326l-162 -746q-11 -53 -20 -106t-9 -90q0 -58 17.5 -102.5t49 -74.5t74 -45.5t91.5 -15.5q57 0 106 17t88 56t69 103.5
t50 159.5l182 844h326zM985 1567h-235l315 325h289z" />
    <glyph glyph-name="Ucircumflex" unicode="&#xdb;" horiz-adv-x="1481" 
d="M1343 584q-30 -141 -77 -254t-124.5 -192t-192.5 -121t-281 -42q-120 0 -216 33t-163 95.5t-103 152t-36 203.5q0 52 8 114.5t20 116.5l160 744h326l-162 -746q-11 -53 -20 -106t-9 -90q0 -58 17.5 -102.5t49 -74.5t74 -45.5t91.5 -15.5q57 0 106 17t88 56t69 103.5
t50 159.5l182 844h326zM1108 1565l-116 190l-197 -190h-211l303 327h250l168 -327h-197z" />
    <glyph glyph-name="Ugrave" unicode="&#xd9;" horiz-adv-x="1481" 
d="M1343 584q-30 -141 -77 -254t-124.5 -192t-192.5 -121t-281 -42q-120 0 -216 33t-163 95.5t-103 152t-36 203.5q0 52 8 114.5t20 116.5l160 744h326l-162 -746q-11 -53 -20 -106t-9 -90q0 -58 17.5 -102.5t49 -74.5t74 -45.5t91.5 -15.5q57 0 106 17t88 56t69 103.5
t50 159.5l182 844h326zM937 1565l-260 325h264l209 -325h-213z" />
    <glyph glyph-name="dotlessi" unicode="&#x131;" horiz-adv-x="650" 
d="M535 9q-18 -5 -41.5 -10t-50 -9.5t-55 -7t-56.5 -2.5q-67 0 -114.5 17.5t-78.5 49t-45.5 75t-14.5 95.5q0 22 2.5 49t6.5 56.5t9.5 60t11.5 58.5q4 17 13.5 62.5l22 104.5l26.5 124.5l26.5 124.5l22 104.5t13.5 62.5h320l-122 -576q-8 -35 -17 -78.5t-9 -75.5
q0 -38 24 -53t55 -15q26 0 52.5 5.5t48.5 14.5l-25 -118.5z" />
    <glyph glyph-name="circumflex" unicode="&#x2c6;" horiz-adv-x="899" 
d="M739 1186l-116 190l-197 -190h-211l303 327h250l168 -327h-197z" />
    <glyph glyph-name="tilde" unicode="&#x2dc;" horiz-adv-x="899" 
d="M995 1487q-10 -72 -34 -125t-58.5 -88t-77 -52.5t-90.5 -17.5q-51 0 -86.5 13t-63 28l-52 28t-54.5 13q-25 0 -44 -8.5t-32 -22.5t-21 -32t-11 -37h-154q7 61 28.5 112.5t55 89t79 59t101.5 21.5q50 0 83 -13t60 -28t53 -28t60 -13q41 0 68.5 26.5t34.5 74.5h155v0z" />
    <glyph glyph-name="macron" unicode="&#x2c9;" horiz-adv-x="899" 
d="M869 1186h-586l37 172h586z" />
    <glyph glyph-name="breve" unicode="&#x2d8;" horiz-adv-x="899" 
d="M956 1493q-20 -68 -53 -124.5t-79.5 -97t-106 -63t-131.5 -22.5q-53 0 -100 15.5t-81.5 45.5t-54.5 74.5t-20 103.5q0 17 2.5 33t7.5 35h162q-2 -8 -3 -17.5t-1 -17.5q0 -51 32 -77.5t78 -26.5q130 0 178 139h170v0z" />
    <glyph glyph-name="dotaccent" unicode="&#x2d9;" horiz-adv-x="899" 
d="M762 1325q0 -28 -11 -53.5t-30.5 -44.5t-47.5 -30t-63 -11q-34 0 -62.5 11t-48.5 30t-31 44.5t-11 53.5q0 30 11.5 54.5t32 42t48.5 27t61 9.5q68 0 110 -37t42 -96z" />
    <glyph glyph-name="ring" unicode="&#x2da;" horiz-adv-x="899" 
d="M862 1378q0 -54 -21 -95t-55 -69t-78 -42.5t-90 -14.5q-49 0 -92 15t-74.5 43t-50 68t-18.5 89q0 56 21 97.5t55 69t77 41t87 13.5q54 0 98.5 -16t75.5 -44.5t48 -68t17 -86.5zM721 1376q0 38 -27.5 66t-75.5 28q-23 0 -41 -8.5t-30 -22t-18.5 -30t-6.5 -33.5
q0 -40 25 -67t71 -27q44 0 73.5 26t29.5 68z" />
    <glyph glyph-name="cedilla" unicode="&#xb8;" horiz-adv-x="899" 
d="M528 -229q0 -45 -20 -86t-62 -72.5t-105.5 -50.5t-150.5 -19q-30 0 -57.5 2l-52.5 4l31 138q42 -9 75 -9q66 0 103 21.5t37 56.5q0 64 -111 64h-22t-25 -2l43 182h154l-19 -82q40 -2 73.5 -11.5t57.5 -27.5t37.5 -45t13.5 -63z" />
    <glyph glyph-name="hungarumlaut" unicode="&#x2dd;" horiz-adv-x="899" 
d="M817 1186h-215l240 325h256zM434 1186h-215l240 325h252z" />
    <glyph glyph-name="ogonek" unicode="&#x2db;" horiz-adv-x="899" 
d="M412 0q-45 -43 -75 -75.5t-48 -58t-25.5 -45.5t-7.5 -38q0 -72 76 -72q23 0 51 8t45 17l-29 -142q-20 -11 -55.5 -19.5t-79.5 -8.5q-52 0 -89 12.5t-61 35t-35 53.5t-11 67q0 65 46.5 128t145.5 138h152v0z" />
    <glyph glyph-name="caron" unicode="&#x2c7;" horiz-adv-x="899" 
d="M711 1186h-250l-168 327h196l117 -190l197 190h211z" />
    <glyph glyph-name="Lslash" unicode="&#x141;" horiz-adv-x="1049" 
d="M905 0h-856l107 500l-179 -70l56 262l180 70l141 672h326l-113 -533l293 115l-55 -262l-295 -115l-78 -373h529z" />
    <glyph glyph-name="lslash" unicode="&#x142;" horiz-adv-x="680" 
d="M569 9q-18 -5 -41.5 -10t-50 -9.5t-55 -7t-56.5 -2.5q-67 0 -114.5 17.5t-78.5 49t-45.5 75t-14.5 95.5q0 22 2.5 49t6.5 56.5t9.5 60t11.5 58.5q2 7 6 26l10 48l-130 -71l51 252l133 72l33.5 156.5l34 161l32 152.5l28 131l21 97t10.5 50h320l-118 -557l143 77l-53 -252
l-144 -75l-55 -261q-8 -35 -17 -78.5t-9 -75.5q0 -38 24 -53t55 -15q26 0 52.5 5.5t48.5 14.5l-25 -118.5z" />
    <glyph glyph-name="Scaron" unicode="&#x160;" horiz-adv-x="1100" 
d="M1067 1102q-31 19 -68.5 37.5t-80 32.5t-89.5 23t-98 9q-57 0 -96 -15.5t-62 -38.5t-33 -49.5t-10 -49.5q0 -33 10.5 -60.5t33 -53t59 -52t88.5 -58.5q68 -42 120.5 -84.5t89.5 -91t56 -105.5t19 -128q0 -41 -9.5 -90t-32.5 -98.5t-63.5 -95.5t-101.5 -81t-146.5 -56.5
t-199.5 -21.5q-64 0 -124.5 8.5t-115 23t-101.5 32.5t-83 37l55 284q37 -27 80.5 -51t91 -42t98.5 -28t103 -10q57 0 97 12.5t65 34.5t36 51t11 62t-10.5 59.5t-34.5 51t-63.5 51t-96.5 59.5q-61 34 -111 73.5t-86 88t-56 108t-20 132.5q0 83 31 163t97 143t168.5 101.5
t244.5 38.5q59 0 114 -6.5t105 -17.5t94 -25t80 -29zM871 1567h-250l-168 327h196l117 -190l197 190h211z" />
    <glyph glyph-name="scaron" unicode="&#x161;" horiz-adv-x="899" 
d="M817 768q-21 11 -49 22t-59.5 20t-64.5 15t-64 6q-73 0 -104.5 -28t-31.5 -68q0 -41 31 -67t82 -52q60 -29 105 -58t75 -64t45 -78.5t15 -100.5q0 -61 -25 -122t-81 -109.5t-147.5 -78.5t-224.5 -30q-38 0 -81 4t-85 11t-80.5 17t-68.5 22l47 241q26 -14 60 -28
t72.5 -25.5t79.5 -19t81 -7.5q75 0 111.5 26t36.5 71q0 38 -28 66.5t-97 60.5q-57 27 -100.5 56t-73.5 64t-45 78t-15 97q0 57 22.5 117.5t74.5 110t137.5 81t210.5 31.5q38 0 78 -3.5t78 -9.5t72 -14t60 -16zM723 1186h-250l-168 327h196l117 -190l197 190h211z" />
    <glyph glyph-name="Zcaron" unicode="&#x17d;" horiz-adv-x="1243" 
d="M1350 1253l-910 -991h701l-56 -262h-1155l39 186l922 985h-660l56 263h1102zM977 1567h-250l-168 327h196l117 -190l197 190h211z" />
    <glyph glyph-name="zcaron" unicode="&#x17e;" horiz-adv-x="995" 
d="M1026 864l-606 -631h475l-49 -233h-930l27 133l645 658h-453l49 233h877zM784 1186h-250l-168 327h196l117 -190l197 190h211z" />
    <glyph glyph-name="brokenbar" unicode="&#xa6;" horiz-adv-x="668" 
d="M229 684v883h252v-883h-252zM229 -481v895h252v-895h-252z" />
    <glyph glyph-name="Eth" unicode="&#xd0;" horiz-adv-x="1542" 
d="M1499 848q0 -172 -52 -326t-159.5 -270t-272 -184t-388.5 -68h-578l127 592h-168l53 262h170l123 580h500q159 0 279.5 -44t202 -122t122.5 -185.5t41 -234.5zM1157 823q0 79 -22.5 143.5t-69 110t-117.5 70t-168 24.5h-157l-68 -317h274l-55 -262h-274l-70 -330h186
q128 0 228.5 38.5t170 111.5t106 177t36.5 234z" />
    <glyph glyph-name="eth" unicode="&#xf0;" horiz-adv-x="1165" 
d="M860 1311q49 -51 93.5 -116.5t78 -143.5t53 -167.5t19.5 -187.5q0 -94 -17 -184t-51.5 -170.5t-85 -147.5t-118 -116t-151 -76t-183.5 -27q-110 0 -192 33t-136.5 91.5t-81.5 139t-27 175.5q0 127 39.5 242t109.5 202.5t167 139t211 51.5q65 0 109 -22t75 -56h4
q-10 33 -27.5 68.5t-38.5 69t-43.5 62.5t-41.5 48l-287 -113l-68 125l248 96q-21 22 -48.5 47l-56.5 50l-59 49t-57 43h342l25.5 -19l30.5 -24l31.5 -26.5t27.5 -25.5l272 111l64 -127zM786 623q0 35 -7.5 68.5t-24.5 59t-46 41t-71 15.5q-61 0 -109 -37t-81 -94.5
t-50.5 -129t-17.5 -140.5q0 -91 38.5 -140t104.5 -49q68 0 117.5 40t82 100.5t48.5 132t16 133.5z" />
    <glyph glyph-name="Yacute" unicode="&#xdd;" horiz-adv-x="1245" 
d="M776 520l-108 -520h-326l109 514l-258 920h350l114 -545q8 -34 9.5 -63t3.5 -52h2q11 28 24.5 57t28.5 54l350 549h363zM868 1567h-235l315 325h289z" />
    <glyph glyph-name="yacute" unicode="&#xfd;" horiz-adv-x="1102" 
d="M551 -90q-51 -89 -105.5 -161.5t-118.5 -123.5t-141.5 -78.5t-175.5 -27.5q-34 0 -81.5 6.5t-88.5 21.5l54 244q21 -15 52 -23t62 -8q59 0 110 27.5t89 89.5l82 129l-199 1018h332l72 -623q3 -34 4 -73t-2 -64h4l23 62t34 75l313 623h332zM702 1186h-235l315 325h289z
" />
    <glyph glyph-name="Thorn" unicode="&#xde;" horiz-adv-x="1290" 
d="M1272 817q0 -106 -37 -202.5t-115 -170t-198 -117.5t-287 -44h-199l-61 -283h-326l305 1434h326l-45 -211h168q122 0 210.5 -31t146 -85t85 -128.5t27.5 -161.5zM930 793q0 38 -13 71.5t-41 58t-71 38.5t-103 14h-120l-95 -445h150q77 0 132.5 21.5t91 57.5t52.5 84
t17 100z" />
    <glyph glyph-name="thorn" unicode="&#xfe;" horiz-adv-x="1214" 
d="M1153 670q0 -84 -18 -168.5t-53.5 -162t-89.5 -144t-126 -115.5t-162.5 -77t-199.5 -28q-40 0 -88 6t-82 15l-101 -467h-319l420 1987h319l-98 -461q-12 -57 -26.5 -110t-28.5 -95h4q28 42 63 78t77.5 63t93 42.5t108.5 15.5q68 0 124.5 -25t97 -73.5t63 -119
t22.5 -161.5zM836 633q0 35 -6.5 66.5t-22.5 55.5t-41.5 38t-63.5 14q-56 0 -101 -32.5t-79 -84t-57.5 -115t-36.5 -126.5l-53 -234q12 -4 28.5 -7t34 -5.5t34.5 -4t30 -1.5q74 0 135.5 36.5t105.5 97t68.5 139.5t24.5 163z" />
    <glyph glyph-name="minus" unicode="&#x2212;" horiz-adv-x="1450" 
d="M258 485v203h975v-203h-975z" />
    <glyph glyph-name="multiply" unicode="&#xd7;" horiz-adv-x="1450" 
d="M1077 104l-338 340l-340 -340l-145 144l340 338l-340 340l141 145l344 -340l342 340l140 -149l-338 -336l340 -338z" />
    <glyph glyph-name="onenumerator" horiz-adv-x="774" 
d="M125 584l37 174h174l104 475l-200 -41l39 180l421 82l-149 -696h172l-37 -174h-561z" />
    <glyph glyph-name="twonumerator" horiz-adv-x="846" 
d="M119 584l33 157l301 236q74 57 115.5 107t41.5 104q0 35 -25.5 55.5t-68.5 20.5q-28 0 -56.5 -6.5t-57 -17.5t-55 -25t-50.5 -29l47 207q40 23 103 42t139 19q65 0 114 -17.5t81.5 -48.5t48.5 -73t16 -90q0 -56 -21.5 -103.5t-60 -91t-90.5 -85t-113 -85.5l-131 -94
l-2 -4h336l-39 -178h-606z" />
    <glyph glyph-name="threenumerator" horiz-adv-x="846" 
d="M791 827q0 -44 -19 -91t-63 -85.5t-116 -63t-179 -24.5q-34 0 -73 3.5t-76 10t-68 15t-50 18.5l39 176q16 -10 42 -19.5t56.5 -17.5t63.5 -13t64 -5q44 0 75 9t50.5 24.5t28.5 35t9 40.5q0 44 -36.5 68t-126.5 24h-105l37 168h107q42 0 75 9t55.5 24t34 34.5t11.5 40.5
q0 35 -28.5 56.5t-90.5 21.5q-51 0 -102.5 -13.5t-92.5 -33.5l39 176q42 16 103.5 27.5t124.5 11.5q60 0 109.5 -14.5t84 -41.5t53.5 -66t19 -87q0 -42 -15 -77.5t-42.5 -64t-65.5 -48.5t-84 -31v-4q74 -17 113 -66t39 -127z" />
    <glyph glyph-name="onehalf" unicode="&#xbd;" horiz-adv-x="1974" 
d="M139 584l37 174h174l104 475l-200 -41l39 180l421 82l-149 -696h172l-37 -174h-561zM514 0h-244l1196 1434h244zM1133 1l33 157l301 236q74 57 115.5 107t41.5 104q0 35 -25.5 55.5t-68.5 20.5q-28 0 -56.5 -6.5t-57 -17.5t-55 -25t-50.5 -29l47 207q40 23 103 42t139 19
q65 0 114 -17.5t81.5 -48.5t48.5 -73t16 -90q0 -56 -21.5 -103.5t-60 -91t-90.5 -85t-113 -85.5l-131 -94l-2 -4h336l-39 -178h-606z" />
    <glyph glyph-name="onequarter" unicode="&#xbc;" horiz-adv-x="1946" 
d="M125 584l37 174h174l104 475l-200 -41l39 180l421 82l-149 -696h172l-37 -174h-561zM504 0h-244l1196 1434h244zM1667 177l-39 -176h-213l37 176h-401l30 152l453 522h276l-110 -518h110l-32 -156h-111zM1565 693q-11 -17 -27 -37l-29 -37l-237 -286h215l57 278
q5 19 12 40.5l13 41.5h-4z" />
    <glyph glyph-name="threequarters" unicode="&#xbe;" horiz-adv-x="2005" 
d="M753 827q0 -44 -19 -91t-63 -85.5t-116 -63t-179 -24.5q-34 0 -73 3.5t-76 10t-68 15t-50 18.5l39 176q16 -10 42 -19.5t56.5 -17.5t63.5 -13t64 -5q44 0 75 9t50.5 24.5t28.5 35t9 40.5q0 44 -36.5 68t-126.5 24h-105l37 168h107q42 0 75 9t55.5 24t34 34.5t11.5 40.5
q0 35 -28.5 56.5t-90.5 21.5q-51 0 -102.5 -13.5t-92.5 -33.5l39 176q42 16 103.5 27.5t124.5 11.5q60 0 109.5 -14.5t84 -41.5t53.5 -66t19 -87q0 -42 -15 -77.5t-42.5 -64t-65.5 -48.5t-84 -31v-4q74 -17 113 -66t39 -127zM565 0h-244l1196 1434h244zM1732 177l-39 -176
h-213l37 176h-401l30 152l453 522h276l-110 -518h110l-32 -156h-111zM1630 693q-11 -17 -27 -37l-29 -37l-237 -286h215l57 278q5 19 12 40.5l13 41.5h-4z" />
    <glyph glyph-name="franc" unicode="&#x20a3;" horiz-adv-x="1063" 
d="M685 222h-264l-47 -222h-323l46 222h-135l40 189h136l217 1023h829l-56 -262h-505l-71 -338h463l-55 -261h-464l-35 -162h264z" />
    <glyph glyph-name="Gbreve" unicode="&#x11e;" horiz-adv-x="1452" 
d="M1370 1081q-31 21 -72 40.5t-89.5 34t-103 23.5t-112.5 9q-125 0 -225.5 -40.5t-171 -114t-108 -177t-37.5 -229.5q0 -91 25 -163t71.5 -121t112.5 -75t147 -26q54 0 89.5 6.5t64.5 15.5l61 291h-291l55 258h613l-154 -727q-43 -21 -94 -40.5t-111 -35.5t-129 -25.5
t-149 -9.5q-154 0 -275.5 46t-204.5 130t-127 201.5t-44 259.5q0 112 25 218.5t74.5 200.5t124 172.5t174 135t224.5 88t275 31.5q68 0 129.5 -7.5t115.5 -19.5t99.5 -26.5t81.5 -28.5zM1369 1874q-20 -68 -53 -124.5t-79.5 -97t-106 -63t-131.5 -22.5q-53 0 -100 15.5
t-81.5 45.5t-54.5 74.5t-20 103.5q0 17 2.5 33t7.5 35h162q-2 -8 -3 -17.5t-1 -17.5q0 -51 32 -77.5t78 -26.5q130 0 178 139h170v0z" />
    <glyph glyph-name="gbreve" unicode="&#x11f;" horiz-adv-x="1214" 
d="M999 123q-28 -134 -75 -245t-127 -190.5t-201 -124t-297 -44.5q-97 0 -179 20.5t-153 54.5l56 254q63 -42 138 -69t158 -27q78 0 136.5 21t101 62t70.5 101.5t45 139.5l18 90h-4q-26 -39 -57 -73.5t-68.5 -60.5t-83 -41.5t-102.5 -15.5q-78 0 -136.5 28.5t-98 79.5
t-59.5 122t-20 157t18.5 170.5t55.5 161t93 141.5t130.5 112.5t167.5 74.5t205 27q62 0 123.5 -4.5t120 -12t111.5 -17t98 -18.5zM775.5 824.5q-30.5 2.5 -64.5 2.5q-69 0 -129.5 -34t-105.5 -93t-71 -139t-26 -172q0 -37 7.5 -68.5t23.5 -54.5t39.5 -36t54.5 -13
q40 0 73.5 16t61 43.5t49 63.5t38.5 76t29.5 81t20.5 78l53 242q-23 5 -53.5 7.5zM1152 1493q-20 -68 -53 -124.5t-79.5 -97t-106 -63t-131.5 -22.5q-53 0 -100 15.5t-81.5 45.5t-54.5 74.5t-20 103.5q0 17 2.5 33t7.5 35h162q-2 -8 -3 -17.5t-1 -17.5q0 -51 32 -77.5
t78 -26.5q130 0 178 139h170v0z" />
    <glyph glyph-name="Idotaccent" unicode="&#x130;" horiz-adv-x="649" 
d="M375 0h-326l303 1434h326zM706 1706q0 -28 -11 -53.5t-30.5 -44.5t-47.5 -30t-63 -11q-34 0 -62.5 11t-48.5 30t-31 44.5t-11 53.5q0 30 11.5 54.5t32 42t48.5 27t61 9.5q68 0 110 -37t42 -96z" />
    <glyph glyph-name="Scedilla" unicode="&#x15e;" horiz-adv-x="1100" 
d="M712 -229q0 -45 -20 -86t-62 -72.5t-105.5 -50.5t-150.5 -19q-30 0 -57.5 2l-52.5 4l31 138q42 -9 75 -9q66 0 103 21.5t37 56.5q0 64 -111 64h-22t-25 -2l37 159q-54 4 -105.5 13.5t-97.5 23t-85.5 29.5t-71.5 33l55 284q37 -27 80.5 -51t91 -42t98.5 -28t103 -10
q57 0 97 12.5t65 34.5t36 51t11 62t-10.5 59.5t-34.5 51t-63.5 51t-96.5 59.5q-61 34 -111 73.5t-86 88t-56 108t-20 132.5q0 83 31 163t97 143t168.5 101.5t244.5 38.5q59 0 114 -6.5t105 -17.5t94 -25t80 -29l-55 -278q-31 19 -68.5 37.5t-80 32.5t-89.5 23t-98 9
q-57 0 -96 -15.5t-62 -38.5t-33 -49.5t-10 -49.5q0 -33 10.5 -60.5t33 -53t59 -52t88.5 -58.5q68 -42 120.5 -84.5t89.5 -91t56 -105.5t19 -128q0 -39 -8 -84t-28 -91t-53.5 -90t-85 -79.5t-122 -61t-165.5 -33.5l-14 -61q40 -2 73.5 -11.5t57.5 -27.5t37.5 -45t13.5 -63z
" />
    <glyph glyph-name="scedilla" unicode="&#x15f;" horiz-adv-x="899" 
d="M588 -229q0 -45 -20 -86t-62 -72.5t-105.5 -50.5t-150.5 -19q-30 0 -57.5 2l-52.5 4l31 138q42 -9 75 -9q66 0 103 21.5t37 56.5q0 64 -111 64h-22t-25 -2l37 159q-34 2 -70 6.5t-70 11t-65 15.5t-56 19l47 241q26 -14 60 -28t72.5 -25.5t79.5 -19t81 -7.5q75 0 111.5 26
t36.5 71q0 38 -28 66.5t-97 60.5q-57 27 -100.5 56t-73.5 64t-45 78t-15 97q0 57 22.5 117.5t74.5 110t137.5 81t210.5 31.5q38 0 78 -3.5t78 -9.5t72 -14t60 -16l-49 -238q-21 11 -49 22t-59.5 20t-64.5 15t-64 6q-73 0 -104.5 -28t-31.5 -68q0 -41 31 -67t82 -52
q60 -29 105 -58t75 -64t45 -78.5t15 -100.5q0 -55 -20 -110t-64.5 -101t-116.5 -79t-176 -44l-14 -63q40 -2 73.5 -11.5t57.5 -27.5t37.5 -45t13.5 -63z" />
    <glyph glyph-name="Cacute" unicode="&#x106;" horiz-adv-x="1300" 
d="M1313 1087q-30 16 -64.5 32t-75.5 28.5t-88.5 20.5t-103.5 8q-130 0 -229.5 -44.5t-167.5 -119.5t-103 -174t-35 -209q0 -91 27 -161t77 -117.5t120 -72t157 -24.5q55 0 103 7.5t91 20t81.5 28.5t73.5 34l-68 -305q-74 -31 -163.5 -47.5t-201.5 -16.5q-150 0 -269 44.5
t-201 126.5t-125.5 196.5t-43.5 255.5q0 113 24 220.5t72.5 203t122 175.5t173 138t226 90.5t279.5 32.5q58 0 112 -6t103 -15.5t90.5 -21t73.5 -22.5zM1035 1567h-235l315 325h289z" />
    <glyph glyph-name="cacute" unicode="&#x107;" horiz-adv-x="946" 
d="M901 743q-34 26 -88 45t-117 19q-73 0 -132 -34t-100 -88t-63 -121t-22 -132q0 -103 48 -159t144 -56q30 0 62.5 6t64.5 16.5t61.5 23.5t53.5 28l-49 -242q-68 -35 -145 -54.5t-154 -19.5q-100 0 -175.5 31t-126.5 87t-76.5 133.5t-25.5 170.5q0 86 19.5 167.5
t56.5 153.5t91.5 133t125 105t156 68.5t184.5 24.5q46 0 87 -5.5t75 -14t60 -19t42 -19.5zM747 1186h-235l315 325h289z" />
    <glyph glyph-name="Ccaron" unicode="&#x10c;" horiz-adv-x="1300" 
d="M1313 1087q-30 16 -64.5 32t-75.5 28.5t-88.5 20.5t-103.5 8q-130 0 -229.5 -44.5t-167.5 -119.5t-103 -174t-35 -209q0 -91 27 -161t77 -117.5t120 -72t157 -24.5q55 0 103 7.5t91 20t81.5 28.5t73.5 34l-68 -305q-74 -31 -163.5 -47.5t-201.5 -16.5q-150 0 -269 44.5
t-201 126.5t-125.5 196.5t-43.5 255.5q0 113 24 220.5t72.5 203t122 175.5t173 138t226 90.5t279.5 32.5q58 0 112 -6t103 -15.5t90.5 -21t73.5 -22.5zM1120 1567h-250l-168 327h196l117 -190l197 190h211z" />
    <glyph glyph-name="ccaron" unicode="&#x10d;" horiz-adv-x="946" 
d="M901 743q-34 26 -88 45t-117 19q-73 0 -132 -34t-100 -88t-63 -121t-22 -132q0 -103 48 -159t144 -56q30 0 62.5 6t64.5 16.5t61.5 23.5t53.5 28l-49 -242q-68 -35 -145 -54.5t-154 -19.5q-100 0 -175.5 31t-126.5 87t-76.5 133.5t-25.5 170.5q0 86 19.5 167.5
t56.5 153.5t91.5 133t125 105t156 68.5t184.5 24.5q46 0 87 -5.5t75 -14t60 -19t42 -19.5zM841 1186h-250l-168 327h196l117 -190l197 190h211z" />
    <glyph glyph-name="dcroat" unicode="&#x111;" horiz-adv-x="1214" 
d="M1255 1338h143l-35 -159h-143l-176 -841q-7 -31 -13.5 -75t-12 -91.5t-9 -93t-3.5 -78.5h-320q0 14 1.5 37.5t4 48.5l5 48.5t3.5 37.5h-4q-31 -44 -64.5 -80t-72 -62t-83.5 -40.5t-99 -14.5q-74 0 -132.5 26t-99.5 75.5t-62.5 123t-21.5 167.5q0 135 45 258.5
t130.5 217.5t208.5 150t280 56q40 0 81.5 -4t67.5 -9l30 143h-330l35 159h331l37 178h315zM829 815q-23 6 -50.5 9t-53.5 3q-69 0 -121 -23t-90.5 -60.5t-64.5 -85t-41.5 -96t-22 -94t-6.5 -79.5q0 -37 8 -68.5t23.5 -54.5t40 -36t57.5 -13q55 0 98.5 32.5t77 85t56.5 118
t38 131.5l51 231v0z" />
    <glyph glyph-name="uni00AF" unicode="&#xaf;" horiz-adv-x="899" 
d="M869 1186h-586l37 172h586z" />
    <glyph glyph-name="uni2219" unicode="&#x2219;" horiz-adv-x="555" 
d="M463 653q0 -73 -52.5 -119.5t-136.5 -46.5q-79 0 -131 50q-51 47 -51 116q0 73 53.5 118.5t133.5 45.5t132 -46.5t52 -117.5z" />
    <glyph glyph-name="Abreve" unicode="&#x102;" horiz-adv-x="1440" 
d="M985 0l-41 319h-514l-168 -319h-364l827 1434h385l205 -1434h-330zM868 1051q-1 16 -1.5 35.5t0 37.5t1.5 32.5t2 21.5h-6q-2 -9 -7 -23t-11.5 -30.5t-15 -34.5t-17.5 -35l-262 -488h369zM1321 1874q-20 -68 -53 -124.5t-79.5 -97t-106 -63t-131.5 -22.5q-53 0 -100 15.5
t-81.5 45.5t-54.5 74.5t-20 103.5q0 17 2.5 33t7.5 35h162q-2 -8 -3 -17.5t-1 -17.5q0 -51 32 -77.5t78 -26.5q130 0 178 139h170v0z" />
    <glyph glyph-name="abreve" unicode="&#x103;" horiz-adv-x="1214" 
d="M1044 338q-7 -31 -13.5 -75t-12 -91.5t-9 -93t-3.5 -78.5h-320q0 15 1.5 38.5t3.5 48t4.5 48t4.5 39.5h-4q-29 -39 -60 -75t-69 -63.5t-84.5 -44t-107.5 -16.5q-75 0 -133.5 27t-98.5 78t-61 124.5t-21 166.5q0 47 10.5 115.5t38 144t76.5 150t125.5 134.5t185 97
t255.5 37q57 0 114.5 -4.5t113 -12t107.5 -17.5t97 -20zM829 817q-23 5 -51 7.5t-53 2.5q-69 0 -121 -23t-90.5 -60t-64.5 -84t-41.5 -95.5t-22 -94.5t-6.5 -81q0 -37 7.5 -68.5t23.5 -54.5t39.5 -36t54.5 -13q57 0 101.5 33t78 84.5t56 116t36.5 127.5l53 239v0zM1172 1493
q-20 -68 -53 -124.5t-79.5 -97t-106 -63t-131.5 -22.5q-53 0 -100 15.5t-81.5 45.5t-54.5 74.5t-20 103.5q0 17 2.5 33t7.5 35h162q-2 -8 -3 -17.5t-1 -17.5q0 -51 32 -77.5t78 -26.5q130 0 178 139h170v0z" />
    <glyph glyph-name="Aogonek" unicode="&#x104;" horiz-adv-x="1440" 
d="M1138 0q-45 -43 -75 -75.5t-48 -58t-25.5 -45.5t-7.5 -38q0 -72 76 -72q23 0 51 8t45 17l-29 -142q-20 -11 -55.5 -19.5t-79.5 -8.5q-52 0 -89 12.5t-61 35t-35 53.5t-11 67q0 65 46.5 128t145.5 138h-1l-41 319h-514l-168 -319h-364l827 1434h385l205 -1434h-177z
M868 1051q-1 16 -1.5 35.5t0 37.5t1.5 32.5t2 21.5h-6q-2 -9 -7 -23t-11.5 -30.5t-15 -34.5t-17.5 -35l-262 -488h369z" />
    <glyph glyph-name="aogonek" unicode="&#x105;" horiz-adv-x="1214" 
d="M1044 338q-7 -31 -13.5 -75t-12 -91.5t-9 -93t-3.5 -78.5h-64q-45 -43 -75 -75.5t-48 -58t-25.5 -45.5t-7.5 -38q0 -72 76 -72q23 0 51 8t45 17l-29 -142q-20 -11 -55.5 -19.5t-79.5 -8.5q-52 0 -89 12.5t-61 35t-35 53.5t-11 67q0 65 46.5 128t145.5 138h-104
q0 15 1.5 38.5t3.5 48t4.5 48t4.5 39.5h-4q-29 -39 -60 -75t-69 -63.5t-84.5 -44t-107.5 -16.5q-75 0 -133.5 27t-98.5 78t-61 124.5t-21 166.5q0 47 10.5 115.5t38 144t76.5 150t125.5 134.5t185 97t255.5 37q57 0 114.5 -4.5t113 -12t107.5 -17.5t97 -20zM829 817
q-23 5 -51 7.5t-53 2.5q-69 0 -121 -23t-90.5 -60t-64.5 -84t-41.5 -95.5t-22 -94.5t-6.5 -81q0 -37 7.5 -68.5t23.5 -54.5t39.5 -36t54.5 -13q57 0 101.5 33t78 84.5t56 116t36.5 127.5l53 239v0z" />
    <glyph glyph-name="Dcaron" unicode="&#x10e;" horiz-adv-x="1542" 
d="M1499 854q0 -113 -23 -220.5t-69.5 -202.5t-117.5 -174t-167.5 -136t-219.5 -89t-273 -32h-580l305 1434h504q158 0 277.5 -43t200.5 -119.5t122 -183t41 -234.5zM1157 829q0 80 -22.5 143.5t-69 107.5t-117.5 67.5t-168 23.5h-157l-193 -909h197q122 0 220 40.5t167 115
t106 179t37 232.5zM1034 1567h-250l-168 327h196l117 -190l197 190h211z" />
    <glyph glyph-name="dcaron" unicode="&#x10f;" horiz-adv-x="1520" 
d="M1044 338q-7 -31 -13.5 -75t-12 -91.5t-9 -93t-3.5 -78.5h-320q0 14 1.5 37.5t4 48.5l5 48.5t3.5 37.5h-4q-31 -44 -64.5 -80t-72 -62t-83.5 -40.5t-99 -14.5q-74 0 -132.5 26t-99.5 75.5t-62.5 123t-21.5 167.5q0 135 45 258.5t130.5 217.5t208.5 150t280 56
q40 0 81.5 -4t67.5 -9l103 480h315zM829 815q-23 6 -50.5 9t-53.5 3q-69 0 -121 -23t-90.5 -60.5t-64.5 -85t-41.5 -96t-22 -94t-6.5 -79.5q0 -37 8 -68.5t23.5 -54.5t40 -36t57.5 -13q55 0 98.5 32.5t77 85t56.5 118t38 131.5l51 231v0zM1767 1517l-243 -352h-194l165 352
h272z" />
    <glyph glyph-name="Dcroat" unicode="&#x110;" horiz-adv-x="1542" 
d="M1499 848q0 -172 -52 -326t-159.5 -270t-272 -184t-388.5 -68h-578l127 592h-168l53 262h170l123 580h500q159 0 279.5 -44t202 -122t122.5 -185.5t41 -234.5zM1157 823q0 79 -22.5 143.5t-69 110t-117.5 70t-168 24.5h-157l-68 -317h274l-55 -262h-274l-70 -330h186
q128 0 228.5 38.5t170 111.5t106 177t36.5 234z" />
    <glyph glyph-name="Eogonek" unicode="&#x118;" horiz-adv-x="1085" 
d="M1124 1171h-501l-68 -323h467l-57 -264h-465l-70 -322h535l-56 -262h-114q-45 -43 -75 -75.5t-48 -58t-25.5 -45.5t-7.5 -38q0 -72 76 -72q23 0 51 8t45 17l-29 -142q-20 -11 -55.5 -19.5t-79.5 -8.5q-52 0 -89 12.5t-61 35t-35 53.5t-11 67q0 65 46.5 128t145.5 138
h-594l305 1434h826z" />
    <glyph glyph-name="eogonek" unicode="&#x119;" horiz-adv-x="1065" 
d="M1051 760q0 -79 -33.5 -145t-112 -114t-208.5 -75.5t-324 -30.5q-2 -6 -2 -10.5v-9.5q0 -31 10 -62t34.5 -56t64.5 -40.5t100 -15.5q36 0 78.5 6.5t86.5 19t87.5 30t80.5 38.5l-49 -236q-47 -25 -113.5 -46t-145.5 -31q-39 -38 -65.5 -67.5t-42 -52.5t-22.5 -42t-7 -37
q0 -72 76 -72q23 0 51 8t45 17l-29 -142q-20 -11 -55.5 -19.5t-79.5 -8.5q-52 0 -89 12.5t-61 35t-35 53.5t-11 67q0 60 39 118t123 126q-100 8 -172.5 44.5t-118.5 93t-68 129.5t-22 154q0 131 43.5 249t124 207t194 141.5t253.5 52.5q101 0 172 -24t116 -64.5t66 -92.5
t21 -108zM750 756q0 37 -27.5 61.5t-77.5 24.5q-44 0 -84.5 -19t-74 -52.5t-57.5 -80t-36 -100.5q180 -2 268.5 41t88.5 125z" />
    <glyph glyph-name="Ecaron" unicode="&#x11a;" horiz-adv-x="1085" 
d="M1124 1171h-501l-68 -323h467l-57 -264h-465l-70 -322h535l-56 -262h-860l305 1434h826zM911 1567h-250l-168 327h196l117 -190l197 190h211z" />
    <glyph glyph-name="ecaron" unicode="&#x11b;" horiz-adv-x="1065" 
d="M1051 760q0 -79 -33.5 -145t-112 -114t-208.5 -75.5t-324 -30.5q-2 -6 -2 -10.5v-9.5q0 -31 10 -62t34.5 -56t64.5 -40.5t100 -15.5q36 0 78.5 6.5t86.5 19t87.5 30t80.5 38.5l-49 -236q-31 -16 -71 -31t-86.5 -27t-99 -19t-107.5 -7q-116 0 -199 34t-136.5 91.5
t-78.5 134.5t-25 164q0 131 43.5 249t124 207t194 141.5t253.5 52.5q101 0 172 -24t116 -64.5t66 -92.5t21 -108zM750 756q0 37 -27.5 61.5t-77.5 24.5q-44 0 -84.5 -19t-74 -52.5t-57.5 -80t-36 -100.5q180 -2 268.5 41t88.5 125zM775 1186h-250l-168 327h196l117 -190
l197 190h211z" />
    <glyph glyph-name="Lacute" unicode="&#x139;" horiz-adv-x="1049" 
d="M905 0h-856l305 1434h326l-248 -1168h529zM875 1567h-235l315 325h289z" />
    <glyph glyph-name="lacute" unicode="&#x13a;" horiz-adv-x="650" 
d="M535 9q-18 -5 -41.5 -10t-50 -9.5t-55 -7t-56.5 -2.5q-67 0 -114.5 17.5t-78.5 49t-45.5 75t-14.5 95.5q0 22 2.5 49t6.5 56.5t9.5 60t11.5 58.5q3 13 13.5 63.5l26.5 124.5l35 164.5l39.5 185l39.5 185l35 164.5l26.5 124.5t13.5 63.5h320l-227 -1068q-8 -35 -17 -78.5
t-9 -75.5q0 -38 24 -53t55 -15q26 0 52.5 5.5t48.5 14.5l-25 -118.5zM568 1649h-235l315 325h289z" />
    <glyph glyph-name="Lcaron" unicode="&#x13d;" horiz-adv-x="1049" 
d="M905 0h-856l305 1434h326l-248 -1168h529zM1224 1434l-243 -352h-194l165 352h272z" />
    <glyph glyph-name="lcaron" unicode="&#x13e;" horiz-adv-x="885" 
d="M535 9q-18 -5 -41.5 -10t-50 -9.5t-55 -7t-56.5 -2.5q-67 0 -114.5 17.5t-78.5 49t-45.5 75t-14.5 95.5q0 22 2.5 49t6.5 56.5t9.5 60t11.5 58.5q3 13 13.5 63.5l26.5 124.5l35 164.5l39.5 185l39.5 185l35 164.5l26.5 124.5t13.5 63.5h320l-227 -1068q-8 -35 -17 -78.5
t-9 -75.5q0 -38 24 -53t55 -15q26 0 52.5 5.5t48.5 14.5l-25 -118.5zM1132 1516l-243 -352h-194l165 352h272z" />
    <glyph glyph-name="Ldot" unicode="&#x13f;" horiz-adv-x="1049" 
d="M905 0h-856l305 1434h326l-248 -1168h529zM1028 788q0 -28 -11 -53.5t-30.5 -44.5t-47.5 -30t-63 -11q-34 0 -62.5 11t-48.5 30t-31 44.5t-11 53.5q0 30 11.5 54.5t32 42t48.5 27t61 9.5q68 0 110 -37t42 -96z" />
    <glyph glyph-name="ldot" unicode="&#x140;" horiz-adv-x="887" 
d="M535 9q-18 -5 -41.5 -10t-50 -9.5t-55 -7t-56.5 -2.5q-67 0 -114.5 17.5t-78.5 49t-45.5 75t-14.5 95.5q0 22 2.5 49t6.5 56.5t9.5 60t11.5 58.5q3 13 13.5 63.5l26.5 124.5l35 164.5l39.5 185l39.5 185l35 164.5l26.5 124.5t13.5 63.5h320l-227 -1068q-8 -35 -17 -78.5
t-9 -75.5q0 -38 24 -53t55 -15q26 0 52.5 5.5t48.5 14.5l-25 -118.5zM926 728q0 -28 -11 -53.5t-30.5 -44.5t-47.5 -30t-63 -11q-34 0 -62.5 11t-48.5 30t-31 44.5t-11 53.5q0 30 11.5 54.5t32 42t48.5 27t61 9.5q68 0 110 -37t42 -96z" />
    <glyph glyph-name="Nacute" unicode="&#x143;" horiz-adv-x="1636" 
d="M1362 0h-295l-449 911q-6 12 -13 28l-14 32.5l-13 31.5t-9 27h-6l-11 -83t-17 -91l-183 -856h-303l303 1434h320l430 -877l12.5 -26.5l15 -32t14 -32.5t9.5 -28h4q1 15 3 33.5t5 37.5t6.5 37t6.5 32l182 856h305zM1066 1567h-235l315 325h289z" />
    <glyph glyph-name="nacute" unicode="&#x144;" horiz-adv-x="1225" 
d="M1151 780q0 -15 -3 -40t-7.5 -52t-9.5 -52.5t-9 -43.5l-125 -592h-317l123 584l12 66t6 52q0 48 -24.5 76.5t-73.5 28.5q-41 0 -85.5 -25.5t-83.5 -67.5t-68.5 -96.5t-41.5 -111.5l-106 -506h-322l152 702l18 92.5t16 89t12.5 79t8.5 61.5h312l-6.5 -58.5l-7 -58.5
t-6.5 -49.5t-5 -30.5h4q35 46 79 86.5t93.5 70.5t102.5 47.5t106 17.5q127 0 191.5 -70.5t64.5 -198.5zM818 1186h-235l315 325h289z" />
    <glyph glyph-name="Ncaron" unicode="&#x147;" horiz-adv-x="1636" 
d="M1362 0h-295l-449 911q-6 12 -13 28l-14 32.5l-13 31.5t-9 27h-6l-11 -83t-17 -91l-183 -856h-303l303 1434h320l430 -877l12.5 -26.5l15 -32t14 -32.5t9.5 -28h4q1 15 3 33.5t5 37.5t6.5 37t6.5 32l182 856h305zM1127 1567h-250l-168 327h196l117 -190l197 190h211z" />
    <glyph glyph-name="ncaron" unicode="&#x148;" horiz-adv-x="1225" 
d="M1151 780q0 -15 -3 -40t-7.5 -52t-9.5 -52.5t-9 -43.5l-125 -592h-317l123 584l12 66t6 52q0 48 -24.5 76.5t-73.5 28.5q-41 0 -85.5 -25.5t-83.5 -67.5t-68.5 -96.5t-41.5 -111.5l-106 -506h-322l152 702l18 92.5t16 89t12.5 79t8.5 61.5h312l-6.5 -58.5l-7 -58.5
t-6.5 -49.5t-5 -30.5h4q35 46 79 86.5t93.5 70.5t102.5 47.5t106 17.5q127 0 191.5 -70.5t64.5 -198.5zM877 1186h-250l-168 327h196l117 -190l197 190h211z" />
    <glyph glyph-name="Ohungarumlaut" unicode="&#x150;" horiz-adv-x="1554" 
d="M1511 842q0 -86 -15 -173t-44.5 -168.5t-74 -156.5t-103.5 -137q-50 -53 -109 -96t-128.5 -73t-150.5 -46.5t-175 -16.5q-142 0 -253.5 47t-188.5 129.5t-117.5 195.5t-40.5 245q0 93 16 183.5t48.5 174t81 159t112.5 138.5q50 48 108 86.5t125 66.5t144 43t165 15
q133 0 243.5 -42t189.5 -121.5t123 -194t44 -258.5zM1169 831q0 81 -20.5 145t-58.5 108.5t-92.5 68t-123.5 23.5q-80 0 -152 -37t-128 -103q-34 -40 -60 -92t-44 -110t-27.5 -118.5t-9.5 -119.5q0 -81 20.5 -145t58.5 -107.5t91.5 -66.5t119.5 -23q82 0 156.5 36t130.5 107
q35 42 61 94.5t43 109.5t26 116t9 114zM1176 1567h-215l240 325h256zM793 1567h-215l240 325h252z" />
    <glyph glyph-name="ohungarumlaut" unicode="&#x151;" horiz-adv-x="1178" 
d="M1116 618q0 -71 -14 -146t-44 -146.5t-77.5 -135.5t-115 -111.5t-156 -75.5t-201.5 -28q-114 0 -198.5 33t-139.5 91t-82 137.5t-27 171.5q0 74 15 150.5t46.5 147.5t80.5 133.5t117 109t155.5 73.5t196.5 27q107 0 189.5 -30.5t139 -87t86 -136t29.5 -177.5zM797 614
q0 42 -10 77.5t-29.5 61t-47.5 40t-65 14.5q-63 0 -112.5 -36t-83.5 -93t-52 -128t-18 -142q0 -91 42.5 -141t110.5 -50q65 0 114.5 35t83 91.5t50.5 127.5t17 143zM968 1186h-215l240 325h256zM585 1186h-215l240 325h252z" />
    <glyph glyph-name="Racute" unicode="&#x154;" horiz-adv-x="1311" 
d="M1305 1069q0 -91 -33 -164.5t-90 -127.5t-133.5 -88t-163.5 -46v-4q62 -20 106 -76t66 -149l100 -414h-346l-78 369q-18 89 -63 134.5t-123 45.5h-55l-117 -549h-326l305 1434h490q125 0 213 -29.5t143 -80t80 -116.5t25 -139zM961 1016q0 83 -49 129.5t-148 46.5h-135
l-86 -399h131q74 0 128 18.5t89 49t52.5 71t17.5 84.5zM895 1567h-235l315 325h289z" />
    <glyph glyph-name="racute" unicode="&#x155;" horiz-adv-x="819" 
d="M831 733h-2q-21 11 -53.5 20t-60.5 9q-59 0 -106 -26.5t-83 -71.5t-60.5 -105.5t-39.5 -128.5l-90 -430h-320l140 653q10 47 19.5 97l18 98.5t15 93.5t10.5 82h313l-6.5 -60l-7 -59.5t-7 -51.5l-5.5 -36h4q62 115 130.5 173.5t158.5 58.5q26 0 51 -5t45 -8zM711 1186
h-235l315 325h289z" />
    <glyph glyph-name="Rcaron" unicode="&#x158;" horiz-adv-x="1311" 
d="M1305 1069q0 -91 -33 -164.5t-90 -127.5t-133.5 -88t-163.5 -46v-4q62 -20 106 -76t66 -149l100 -414h-346l-78 369q-18 89 -63 134.5t-123 45.5h-55l-117 -549h-326l305 1434h490q125 0 213 -29.5t143 -80t80 -116.5t25 -139zM961 1016q0 83 -49 129.5t-148 46.5h-135
l-86 -399h131q74 0 128 18.5t89 49t52.5 71t17.5 84.5zM954 1567h-250l-168 327h196l117 -190l197 190h211z" />
    <glyph glyph-name="rcaron" unicode="&#x159;" horiz-adv-x="819" 
d="M831 733h-2q-21 11 -53.5 20t-60.5 9q-59 0 -106 -26.5t-83 -71.5t-60.5 -105.5t-39.5 -128.5l-90 -430h-320l140 653q10 47 19.5 97l18 98.5t15 93.5t10.5 82h313l-6.5 -60l-7 -59.5t-7 -51.5l-5.5 -36h4q62 115 130.5 173.5t158.5 58.5q26 0 51 -5t45 -8zM732 1186
h-250l-168 327h196l117 -190l197 190h211z" />
    <glyph glyph-name="Sacute" unicode="&#x15a;" horiz-adv-x="1100" 
d="M1067 1102q-31 19 -68.5 37.5t-80 32.5t-89.5 23t-98 9q-57 0 -96 -15.5t-62 -38.5t-33 -49.5t-10 -49.5q0 -33 10.5 -60.5t33 -53t59 -52t88.5 -58.5q68 -42 120.5 -84.5t89.5 -91t56 -105.5t19 -128q0 -41 -9.5 -90t-32.5 -98.5t-63.5 -95.5t-101.5 -81t-146.5 -56.5
t-199.5 -21.5q-64 0 -124.5 8.5t-115 23t-101.5 32.5t-83 37l55 284q37 -27 80.5 -51t91 -42t98.5 -28t103 -10q57 0 97 12.5t65 34.5t36 51t11 62t-10.5 59.5t-34.5 51t-63.5 51t-96.5 59.5q-61 34 -111 73.5t-86 88t-56 108t-20 132.5q0 83 31 163t97 143t168.5 101.5
t244.5 38.5q59 0 114 -6.5t105 -17.5t94 -25t80 -29zM825 1567h-235l315 325h289z" />
    <glyph glyph-name="sacute" unicode="&#x15b;" horiz-adv-x="899" 
d="M817 768q-21 11 -49 22t-59.5 20t-64.5 15t-64 6q-73 0 -104.5 -28t-31.5 -68q0 -41 31 -67t82 -52q60 -29 105 -58t75 -64t45 -78.5t15 -100.5q0 -61 -25 -122t-81 -109.5t-147.5 -78.5t-224.5 -30q-38 0 -81 4t-85 11t-80.5 17t-68.5 22l47 241q26 -14 60 -28
t72.5 -25.5t79.5 -19t81 -7.5q75 0 111.5 26t36.5 71q0 38 -28 66.5t-97 60.5q-57 27 -100.5 56t-73.5 64t-45 78t-15 97q0 57 22.5 117.5t74.5 110t137.5 81t210.5 31.5q38 0 78 -3.5t78 -9.5t72 -14t60 -16zM669 1186h-235l315 325h289z" />
    <glyph glyph-name="Tcedilla" unicode="&#x162;" horiz-adv-x="1202" 
d="M698 -229q0 -45 -20 -86t-62 -72.5t-105.5 -50.5t-150.5 -19q-30 0 -57.5 2l-52.5 4l31 138q42 -9 75 -9q66 0 103 21.5t37 56.5q0 64 -111 64h-22t-25 -2l43 182h-55l247 1171h-409l57 263h1139l-57 -263h-404l-248 -1171h-116l-19 -82q40 -2 73.5 -11.5t57.5 -27.5
t37.5 -45t13.5 -63z" />
    <glyph glyph-name="tcedilla" unicode="&#x163;" horiz-adv-x="768" 
d="M558 -229q0 -45 -20 -86t-62 -72.5t-105.5 -50.5t-150.5 -19q-30 0 -57.5 2l-52.5 4l31 138q42 -9 75 -9q66 0 103 21.5t37 56.5q0 64 -111 64h-22t-25 -2l43 182h2q-36 15 -60.5 38t-39.5 53t-21.5 65.5t-6.5 74.5q0 16 2 37t5.5 43t8 44.5l8.5 41.5l82 394h-158l56 233
h151l52 240l333 82l-67 -322h243l-55 -233h-239l-82 -383q-2 -13 -5 -28t-5.5 -30t-4.5 -28.5t-2 -22.5q0 -40 20 -59t66 -19q12 0 30.5 3t38 8t37.5 10.5t29 9.5l-49 -234q-17 -7 -42 -14t-54 -12.5t-61 -9.5t-64 -5l-13 -59q40 -2 73.5 -11.5t57.5 -27.5t37.5 -45
t13.5 -63z" />
    <glyph glyph-name="Tcaron" unicode="&#x164;" horiz-adv-x="1202" 
d="M1303 1171h-404l-248 -1171h-325l247 1171h-409l57 263h1139zM918 1567h-250l-168 327h196l117 -190l197 190h211z" />
    <glyph glyph-name="tcaron" unicode="&#x165;" horiz-adv-x="1034" 
d="M776 791h-239l-82 -383q-2 -13 -5 -28t-5.5 -30t-4.5 -28.5t-2 -22.5q0 -40 20 -59t66 -19q12 0 30.5 3t38 8t37.5 10.5t29 9.5l-49 -234q-18 -7 -44 -14t-57 -13t-64.5 -10t-65.5 -4q-76 0 -127 19.5t-81.5 54t-43 80.5t-12.5 100q0 16 2 37t5.5 43t8 44.5l8.5 41.5
l82 394h-158l56 233h151l52 240l333 82l-67 -322h243zM1282 1517l-243 -352h-194l165 352h272z" />
    <glyph glyph-name="Uring" unicode="&#x16e;" horiz-adv-x="1481" 
d="M1343 584q-30 -141 -77 -254t-124.5 -192t-192.5 -121t-281 -42q-120 0 -216 33t-163 95.5t-103 152t-36 203.5q0 52 8 114.5t20 116.5l160 744h326l-162 -746q-11 -53 -20 -106t-9 -90q0 -58 17.5 -102.5t49 -74.5t74 -45.5t91.5 -15.5q57 0 106 17t88 56t69 103.5
t50 159.5l182 844h326zM1210 1759q0 -54 -21 -95t-55 -69t-78 -42.5t-90 -14.5q-49 0 -92 15t-74.5 43t-50 68t-18.5 89q0 56 21 97.5t55 69t77 41t87 13.5q54 0 98.5 -16t75.5 -44.5t48 -68t17 -86.5zM1069 1757q0 38 -27.5 66t-75.5 28q-23 0 -41 -8.5t-30 -22t-18.5 -30
t-6.5 -33.5q0 -40 25 -67t71 -27q44 0 73.5 26t29.5 68z" />
    <glyph glyph-name="uring" unicode="&#x16f;" horiz-adv-x="1225" 
d="M1051 340q-9 -45 -17 -93.5t-14 -93.5t-10 -84.5t-6 -68.5h-320q3 29 6.5 59t7.5 56.5l7 47.5t4 30h-4q-39 -49 -83.5 -89t-93 -68.5t-100 -44.5t-104.5 -16q-127 0 -192.5 70.5t-65.5 198.5q0 15 3 40t7.5 52l9 52.5t8.5 43.5l125 592h318l-123 -578q-4 -16 -7.5 -34
t-6 -35t-4 -31t-1.5 -22q0 -44 24 -70.5t70 -26.5q50 0 97 28t85 73t65.5 101t39.5 112l103 483h319zM999 1378q0 -54 -21 -95t-55 -69t-78 -42.5t-90 -14.5q-49 0 -92 15t-74.5 43t-50 68t-18.5 89q0 56 21 97.5t55 69t77 41t87 13.5q54 0 98.5 -16t75.5 -44.5t48 -68
t17 -86.5zM858 1376q0 38 -27.5 66t-75.5 28q-23 0 -41 -8.5t-30 -22t-18.5 -30t-6.5 -33.5q0 -40 25 -67t71 -27q44 0 73.5 26t29.5 68z" />
    <glyph glyph-name="Uhungarumlaut" unicode="&#x170;" horiz-adv-x="1481" 
d="M1343 584q-30 -141 -77 -254t-124.5 -192t-192.5 -121t-281 -42q-120 0 -216 33t-163 95.5t-103 152t-36 203.5q0 52 8 114.5t20 116.5l160 744h326l-162 -746q-11 -53 -20 -106t-9 -90q0 -58 17.5 -102.5t49 -74.5t74 -45.5t91.5 -15.5q57 0 106 17t88 56t69 103.5
t50 159.5l182 844h326zM1168 1567h-215l240 325h256zM785 1567h-215l240 325h252z" />
    <glyph glyph-name="uhungarumlaut" unicode="&#x171;" horiz-adv-x="1225" 
d="M1051 340q-9 -45 -17 -93.5t-14 -93.5t-10 -84.5t-6 -68.5h-320q3 29 6.5 59t7.5 56.5l7 47.5t4 30h-4q-39 -49 -83.5 -89t-93 -68.5t-100 -44.5t-104.5 -16q-127 0 -192.5 70.5t-65.5 198.5q0 15 3 40t7.5 52l9 52.5t8.5 43.5l125 592h318l-123 -578q-4 -16 -7.5 -34
t-6 -35t-4 -31t-1.5 -22q0 -44 24 -70.5t70 -26.5q50 0 97 28t85 73t65.5 101t39.5 112l103 483h319zM1014 1186h-215l240 325h256zM631 1186h-215l240 325h252z" />
    <glyph glyph-name="Zacute" unicode="&#x179;" horiz-adv-x="1243" 
d="M1350 1253l-910 -991h701l-56 -262h-1155l39 186l922 985h-660l56 263h1102zM900 1567h-235l315 325h289z" />
    <glyph glyph-name="zacute" unicode="&#x17a;" horiz-adv-x="995" 
d="M1026 864l-606 -631h475l-49 -233h-930l27 133l645 658h-453l49 233h877zM724 1186h-235l315 325h289z" />
    <glyph glyph-name="Zdotaccent" unicode="&#x17b;" horiz-adv-x="1243" 
d="M1350 1253l-910 -991h701l-56 -262h-1155l39 186l922 985h-660l56 263h1102zM1008 1706q0 -28 -11 -53.5t-30.5 -44.5t-47.5 -30t-63 -11q-34 0 -62.5 11t-48.5 30t-31 44.5t-11 53.5q0 30 11.5 54.5t32 42t48.5 27t61 9.5q68 0 110 -37t42 -96z" />
    <glyph glyph-name="zdotaccent" unicode="&#x17c;" horiz-adv-x="995" 
d="M1026 864l-606 -631h475l-49 -233h-930l27 133l645 658h-453l49 233h877zM801 1325q0 -28 -11 -53.5t-30.5 -44.5t-47.5 -30t-63 -11q-34 0 -62.5 11t-48.5 30t-31 44.5t-11 53.5q0 30 11.5 54.5t32 42t48.5 27t61 9.5q68 0 110 -37t42 -96z" />
    <glyph glyph-name="Gamma" unicode="&#x393;" horiz-adv-x="1085" 
d="M1152 1168h-532l-248 -1168h-323l305 1434h855z" />
    <glyph glyph-name="Theta" unicode="&#x398;" horiz-adv-x="1554" 
d="M1511 842q0 -86 -15 -173t-44.5 -168.5t-74 -156.5t-103.5 -137q-50 -53 -109 -96t-128.5 -73t-150.5 -46.5t-175 -16.5q-142 0 -253.5 47t-188.5 129.5t-117.5 195.5t-40.5 245q0 93 16 183.5t48.5 174t81 159t112.5 138.5q50 48 108 86.5t125 66.5t144 43t165 15
q133 0 243.5 -42t189.5 -121.5t123 -194t44 -258.5zM1169 831q0 81 -20.5 145t-58.5 108.5t-92.5 68t-123.5 23.5q-80 0 -152 -37t-128 -103q-34 -40 -60 -92t-44 -110t-27.5 -118.5t-9.5 -119.5q0 -81 20.5 -145t58.5 -107.5t91.5 -66.5t119.5 -23q82 0 156.5 36t130.5 107
q35 42 61 94.5t43 109.5t26 116t9 114zM1001 597h-436l51 239h435z" />
    <glyph glyph-name="Phi" unicode="&#x3a6;" horiz-adv-x="1690" 
d="M1685 810q0 -70 -15.5 -144t-49 -144t-85 -132.5t-124 -109t-166.5 -73.5t-212 -27h-115l-41 -203h-308l42 203h-53q-107 0 -195.5 31.5t-151.5 92t-98 148.5t-35 202q0 74 16 150.5t50 148.5t86.5 134.5t126 109.5t169 74t214.5 27h115l32 157h300l-32 -157h52
q107 0 195 -31t151 -92.5t97.5 -153t34.5 -211.5zM1366 804q0 63 -17 110.5t-48 79.5t-73 48t-93 16h-31l-135 -639h50q88 0 153.5 34.5t108.5 89t64 123.5t21 138zM746 1058q-88 0 -153 -34t-108 -89t-64 -124t-21 -138q0 -63 17 -110.5t48 -79.5t73 -48t92 -16h31l136 639
h-51z" />
    <glyph glyph-name="alpha" unicode="&#x3b1;" horiz-adv-x="1333" 
d="M792 510q-3 63 -10 118t-21.5 95.5t-39 63.5t-62.5 23q-58 0 -109 -39t-89 -101.5t-59.5 -140t-21.5 -155.5q0 -33 8 -60.5t23 -47.5t36.5 -31t48.5 -11q72 0 140.5 59.5t124.5 164.5l31 62v0zM814 245q-82 -129 -182.5 -199.5t-228.5 -70.5q-78 0 -141 26t-107.5 75.5
t-69 121t-24.5 162.5q0 95 20.5 182.5t59 164t92 139.5t119.5 108t142.5 70t159.5 25q64 0 112 -15.5t83 -44t59.5 -69.5t41.5 -91h4l49.5 96.5l48.5 98.5h323l-160 -259l-58 -95.5l-51 -83.5l-50 -81q7 -130 32.5 -198.5t82.5 -68.5q20 0 41.5 3.5t41.5 12.5l-28 -120.5
l-28 -121.5q-23 -9 -63 -18t-94 -9q-101 0 -157.5 63t-64.5 197h-5z" />
    <glyph glyph-name="delta" unicode="&#x3b4;" horiz-adv-x="1260" 
d="M1224 1193q-38 22 -83.5 40.5t-92.5 32t-92.5 21.5t-84.5 8q-77 0 -121.5 -25.5t-44.5 -74.5q0 -30 18.5 -58t50 -56t74 -57.5l89.5 -64.5q59 -42 105 -87t78.5 -97.5t49.5 -115t17 -140.5q0 -127 -40.5 -228t-119 -171.5t-193.5 -108t-263 -37.5q-123 0 -218 33.5
t-160 93t-98.5 140.5t-33.5 177q0 79 20.5 143.5t55.5 116.5t81.5 91.5t98.5 69.5t106.5 51t104.5 34q-31 26 -57.5 57t-46 66t-31 73.5t-11.5 79.5q0 102 44.5 167.5t116.5 103t162 51.5t181 14q48 0 101 -4.5t105 -13.5t100 -21.5t86 -29.5zM693 780q-70 -20 -127.5 -51.5
t-99 -74.5t-64 -99t-22.5 -125q0 -100 57 -157t157 -57q59 0 109 18t87 53t57.5 88t20.5 122q0 57 -20.5 103t-48.5 81.5t-57.5 60.5t-48.5 38z" />
    <glyph glyph-name="epsilon" unicode="&#x3b5;" horiz-adv-x="970" 
d="M808 28q-75 -22 -161.5 -37.5t-198.5 -15.5q-102 0 -182 20t-135.5 57.5t-85 90t-29.5 118.5t26.5 113.5t68.5 79t94.5 50t103.5 27.5q1 1 1 2t1 2q-32 12 -60.5 31.5t-50 46t-34 59.5t-12.5 73q0 77 34.5 134t99 94.5t156 56.5t205.5 19q44 0 88 -3.5t85 -10t77 -15
t64 -18.5l-22 -109l-22 -109q-29 12 -62 22.5t-67 17.5t-66.5 11t-60.5 4q-34 0 -68 -6.5t-61.5 -20t-44.5 -35t-17 -52.5q0 -29 14 -50t39.5 -34.5t60 -20t75.5 -6.5q12 0 30 0.5t36.5 2l35.5 3t27 2.5l-19.5 -100t-20.5 -100q-19 2 -55.5 4.5t-90.5 2.5t-101 -7t-81.5 -23
t-54 -41.5t-19.5 -62.5q0 -51 45.5 -79t140.5 -28q38 0 79 5t82 14t81.5 21.5t77.5 26.5q-11 -57 -23 -113.5t-23 -113.5z" />
    <glyph glyph-name="sigma" unicode="&#x3c3;" horiz-adv-x="1269" 
d="M1303 796h-217q16 -36 27 -89.5t11 -118.5q0 -151 -44 -265.5t-123.5 -192t-189.5 -116.5t-243 -39q-109 0 -195 29.5t-145.5 85t-91 135t-31.5 179.5q0 141 44.5 255.5t129 195.5t208 125t281.5 44h629zM806 621q0 51 -5 98t-14 76h-71q-73 0 -135 -26.5t-107 -76
t-70 -121t-25 -162.5q0 -47 13.5 -83t36.5 -60.5t55 -37t69 -12.5q62 0 109.5 30t79.5 84t48 128.5t16 162.5z" />
    <glyph glyph-name="tau" unicode="&#x3c4;" horiz-adv-x="1131" 
d="M795 9q-27 -10 -73.5 -19.5t-107.5 -9.5q-67 0 -117 18t-83.5 50.5t-50.5 76.5t-17 96q0 55 9 110.5t21 111.5q2 11 8 38l13.5 62.5l16 74.5l16 74.5l13.5 62.5t8 37h-88q-39 0 -81 -8t-83 -20.5t-77.5 -28.5t-64.5 -33l27.5 126.5l27.5 126.5q29 16 68 29t83 22t90 13.5
t89 4.5h749l-25.5 -116l-24.5 -116h-378l-42 -204.5l-43 -204.5q-4 -20 -8.5 -47t-4.5 -47q0 -34 24 -48.5t56 -14.5q26 0 52 5.5t48 14.5l-25 -118.5z" />
    <glyph glyph-name="phi" unicode="&#x3c6;" horiz-adv-x="1595" 
d="M1533 633q0 -115 -25.5 -209t-70 -167t-106.5 -126t-135 -88t-154.5 -51.5t-165.5 -16.5h-50l-95 -449h-295l95 449h-26q-104 0 -186.5 30t-139.5 85t-87.5 132t-30.5 171q0 101 24.5 194t64.5 174t90.5 148t102.5 115h324q-56 -51 -110 -120.5t-96 -149t-68 -165
t-26 -169.5q0 -56 16.5 -95.5t43.5 -64t62.5 -36t73.5 -11.5h19l91 432q22 101 57 176.5t89 126t129.5 76t178.5 25.5q94 0 169 -31.5t127.5 -87t81 -131.5t28.5 -166zM1230 626q0 89 -33.5 137t-90.5 48q-49 0 -82.5 -32.5t-50.5 -111.5l-96 -454h22q56 0 115 23t107 72.5
t78.5 128t30.5 189.5z" />
    <glyph glyph-name="underscoredbl" unicode="&#x2017;" horiz-adv-x="850" 
d="M0 -277v119h850v-119h-850zM0 -514v119h850v-119h-850z" />
    <glyph glyph-name="exclamdbl" unicode="&#x203c;" horiz-adv-x="1188" 
d="M1035 446h-256l172 988h332zM1037 150q0 -39 -15 -70.5t-40.5 -54.5t-60.5 -35.5t-75 -12.5q-38 0 -70.5 12t-56.5 33t-37.5 49.5t-13.5 61.5q0 39 15 71.5t41 55t61 35t76 12.5q38 0 70 -12t55.5 -33t37 -49.5t13.5 -62.5zM463 446h-256l172 988h332zM465 150
q0 -39 -15 -70.5t-40.5 -54.5t-60.5 -35.5t-75 -12.5q-38 0 -70.5 12t-56.5 33t-37.5 49.5t-13.5 61.5q0 39 15 71.5t41 55t61 35t76 12.5q38 0 70 -12t55.5 -33t37 -49.5t13.5 -62.5z" />
    <glyph glyph-name="nsuperior" unicode="&#x207f;" horiz-adv-x="885" 
d="M347 716h-211l153 719h211l-29 -134h3q22 30 50 57t61.5 48t71.5 33.5t80 12.5q88 0 135 -50.5t47 -136.5q0 -13 -1.5 -30.5t-3.5 -36.5t-5.5 -38l-6.5 -36l-87 -408h-211l88 413q5 21 8 46t3 38q0 33 -19.5 54.5t-59.5 21.5q-35 0 -67.5 -17t-58.5 -43.5t-44 -58.5
t-24 -62z" />
    <glyph glyph-name="peseta" unicode="&#x20a7;" horiz-adv-x="2635" 
d="M1712 14q-34 -14 -93 -25t-130 -11q-70 0 -119 17t-80 48.5t-45 75.5t-14 98q0 29 4 61.5t11 63.5q2 8 6.5 30l11 51.5l13 61.5l13 61.5l11 51.5t6.5 30h-159q8 34 15 67.5l14 67.5q-14 -28 -34 -53t-43 -48q-81 -83 -204.5 -125.5t-284.5 -42.5h-145l-52 -247l-52 -247
h-313l303 1434h402q126 0 217.5 -31t151 -87t88 -133.5t28.5 -169.5q0 -41 -6 -84.5t-19 -81.5h139q11 46 20.5 92l19.5 93l75 20.5l86.5 24l86.5 24.5l74 21l-28.5 -137.5l-29.5 -137.5h223q-11 -55 -23.5 -109.5t-23.5 -109.5h-223q-11 -58 -24 -115t-25 -115
q-4 -21 -8 -47.5t-4 -43.5q0 -89 82 -89q28 0 60.5 8t69.5 22l-25 -117zM2520 281q0 -64 -24.5 -119.5t-77.5 -96.5t-137 -64t-204 -23q-39 0 -82 3.5t-84 10t-77 15.5t-61 19l43 226q26 -13 58.5 -24.5t68.5 -19t73.5 -12t74.5 -4.5q73 0 111 16.5t38 45.5q0 16 -9 28
t-28.5 23t-48.5 23l-70 28q-94 37 -142.5 94.5t-48.5 135.5q0 72 30 125t84.5 88.5t132 53t171.5 17.5q35 0 72 -3.5t72.5 -9t66.5 -12.5t53 -15l-42 -208q-19 7 -48.5 13.5t-62.5 12t-66.5 9t-59.5 3.5q-22 0 -43 -2.5t-37.5 -8.5t-26.5 -16.5t-10 -26.5q0 -14 10 -25
t28.5 -21t46 -20t62.5 -24q47 -18 83 -40t60.5 -50t37.5 -64t13 -81zM599 738q146 0 224 69t78 194q0 24 -7 41q-11 73 -68 109.5t-142 36.5h-70l-96 -450h81z" />
    <glyph glyph-name="IJ" unicode="&#x132;" horiz-adv-x="1561" 
d="M375 0h-326l303 1434h326zM1416 573q-29 -138 -80 -248.5t-128 -188.5t-181.5 -119.5t-241.5 -41.5q-24 0 -55 4t-61.5 10t-57.5 14t-43 15l59 299q15 -12 36 -23.5t44.5 -20t47.5 -14t46 -5.5q113 0 184.5 79.5t106.5 248.5l183 852h325z" />
    <glyph glyph-name="ij" unicode="&#x133;" horiz-adv-x="1188" 
d="M639 1354q0 -39 -15 -70t-40.5 -53.5t-60 -34.5t-74.5 -12q-38 0 -70.5 11.5t-56 32t-37 48.5t-13.5 61q0 39 14.5 70t40 53.5t60.5 34.5t76 12q38 0 70 -11.5t55.5 -32t37 -48.5t13.5 -61zM535 9q-18 -5 -41.5 -10t-50 -9.5t-55 -7t-56.5 -2.5q-67 0 -114.5 17.5
t-78.5 49t-45.5 75t-14.5 95.5q0 22 2.5 49t6.5 56.5t9.5 60t11.5 58.5q4 17 13.5 62.5l22 104.5l26.5 124.5l26.5 124.5l22 104.5t13.5 62.5h320l-122 -576q-8 -35 -17 -78.5t-9 -75.5q0 -38 24 -53t55 -15q26 0 52.5 5.5t48.5 14.5l-25 -118.5zM1289 1354q0 -39 -15 -70
t-40.5 -53.5t-60 -34.5t-74.5 -12q-38 0 -70.5 11.5t-56 32t-37 48.5t-13.5 61q0 39 14.5 70t40 53.5t60.5 34.5t76 12q38 0 70 -11.5t55.5 -32t37 -48.5t13.5 -61zM996 53q-23 -108 -61.5 -205t-101 -170t-152.5 -116t-215 -43q-44 0 -88 9t-72 23l51 242q9 -6 21.5 -12
t27 -10.5t29.5 -7.5t27 -3q75 0 127 61t81 199l213 1004h320z" />
    <glyph glyph-name="napostrophe" unicode="&#x149;" horiz-adv-x="1466" 
d="M1392 780q0 -15 -3 -40t-7.5 -52t-9.5 -52.5t-9 -43.5l-125 -592h-317l123 584l12 66t6 52q0 48 -24.5 76.5t-73.5 28.5q-41 0 -85.5 -25.5t-83.5 -67.5t-68.5 -96.5t-41.5 -111.5l-106 -506h-322l152 702l18 92.5t16 89t12.5 79t8.5 61.5h312l-6.5 -58.5l-7 -58.5
t-6.5 -49.5t-5 -30.5h4q35 46 79 86.5t93.5 70.5t102.5 47.5t106 17.5q127 0 191.5 -70.5t64.5 -198.5zM309 1008h-194l158 444h251z" />
    <glyph glyph-name="minute" unicode="&#x2032;" horiz-adv-x="600" 
d="M477 1452l-125 -442h-200l65 442h260z" />
    <glyph glyph-name="second" unicode="&#x2033;" horiz-adv-x="1010" 
d="M881 1452l-125 -444h-201l64 444h262zM486 1452l-125 -442h-203l65 442h263z" />
    <glyph glyph-name="uni2105" unicode="&#x2105;" horiz-adv-x="1644" 
d="M1610 420q0 -38 -5.5 -79.5t-19 -83t-34.5 -81.5t-53 -75q-51 -57 -121.5 -89t-164.5 -32q-83 0 -144 24.5t-103 71.5q-38 42 -56 95t-18 115q0 37 5.5 77.5t19 81.5t35 80.5t53.5 74.5q52 59 123.5 91.5t169.5 32.5q76 0 133.5 -21t98.5 -62q81 -81 81 -221zM333 0h-247
l1227 1434h247zM1397 415q0 61 -26.5 98.5t-83.5 37.5q-42 0 -74.5 -19.5t-56.5 -55.5q-27 -41 -39 -90.5t-12 -98.5q0 -65 29.5 -99.5t84.5 -34.5q41 0 72 19.5t54 54.5q28 41 40 90.5t12 97.5zM715 1408q-8 -45 -15 -89.5t-15 -89.5q-42 29 -82.5 42t-82.5 13
q-51 0 -89 -23.5t-64 -65.5q-24 -38 -35 -82t-11 -89q0 -13 2 -23.5t5 -19.5q8 -48 37 -74t77 -26q37 0 86.5 14.5t107.5 46.5l-17.5 -93l-17.5 -92q-44 -23 -90.5 -35.5t-98.5 -12.5q-71 0 -127.5 20t-97.5 61q-39 40 -60 96t-21 129q0 93 29 171.5t85 138.5
q57 63 133.5 96t170.5 33q57 0 106 -12t85 -34z" />
    <glyph glyph-name="uni2113" unicode="&#x2113;" horiz-adv-x="662" 
d="M14 422l179 235v455q0 173 34 254q53 125 199 125q102 0 162 -70q57 -66 57 -170q0 -189 -285 -585v-416q0 -88 14 -110q15 -21 44 -21q47 0 198 106v-162q-112 -88 -225 -88q-198 0 -198 242v225l-80 -98zM360 899q101 174 124 235q22 59 22 117q0 119 -76 119
q-31 0 -45 -24q-25 -43 -25 -220v-227z" />
    <glyph glyph-name="uni25A1" unicode="&#x25a1;" horiz-adv-x="1237" 
d="M1090 944v-944h-945v944h945zM221 76h793v792h-793v-792z" />
    <glyph glyph-name="uni25AA" unicode="&#x25aa;" horiz-adv-x="725" 
d="M594 444h-463v463h463v-463z" />
    <glyph glyph-name="uni25AB" unicode="&#x25ab;" horiz-adv-x="725" 
d="M594 444h-463v463h463v-463zM207 831v-311h311v311h-311z" />
    <glyph glyph-name="uni25CF" unicode="&#x25cf;" horiz-adv-x="1237" 
d="M618 1018q112 0 216 -57q111 -62 165 -162q60 -109 60 -221q0 -181 -128 -311t-310 -130q-183 0 -313 128t-130 313q0 118 60 222t164 161t216 57z" />
    <glyph glyph-name="openbullet" unicode="&#x25e6;" horiz-adv-x="725" 
d="M362 928q105 0 178.5 -73t73.5 -177q0 -105 -73 -178.5t-179 -73.5q-104 0 -176.5 74t-72.5 178q0 103 73 176.5t176 73.5zM362 852q-72 0 -123 -51t-51 -123q0 -74 51 -125t126 -51q73 0 123.5 51.5t50.5 124.5q0 70 -50.5 122t-126.5 52z" />
    <glyph glyph-name="Amacron" unicode="&#x100;" horiz-adv-x="1440" 
d="M985 0l-41 319h-514l-168 -319h-364l827 1434h385l205 -1434h-330zM868 1051q-1 16 -1.5 35.5t0 37.5t1.5 32.5t2 21.5h-6q-2 -9 -7 -23t-11.5 -30.5t-15 -34.5t-17.5 -35l-262 -488h369zM1221 1567h-586l37 172h586z" />
    <glyph glyph-name="amacron" unicode="&#x101;" horiz-adv-x="1214" 
d="M1044 338q-7 -31 -13.5 -75t-12 -91.5t-9 -93t-3.5 -78.5h-320q0 15 1.5 38.5t3.5 48t4.5 48t4.5 39.5h-4q-29 -39 -60 -75t-69 -63.5t-84.5 -44t-107.5 -16.5q-75 0 -133.5 27t-98.5 78t-61 124.5t-21 166.5q0 47 10.5 115.5t38 144t76.5 150t125.5 134.5t185 97
t255.5 37q57 0 114.5 -4.5t113 -12t107.5 -17.5t97 -20zM829 817q-23 5 -51 7.5t-53 2.5q-69 0 -121 -23t-90.5 -60t-64.5 -84t-41.5 -95.5t-22 -94.5t-6.5 -81q0 -37 7.5 -68.5t23.5 -54.5t39.5 -36t54.5 -13q57 0 101.5 33t78 84.5t56 116t36.5 127.5l53 239v0zM1096 1186
h-586l37 172h586z" />
    <glyph glyph-name="Ccircumflex" unicode="&#x108;" horiz-adv-x="1300" 
d="M1313 1087q-30 16 -64.5 32t-75.5 28.5t-88.5 20.5t-103.5 8q-130 0 -229.5 -44.5t-167.5 -119.5t-103 -174t-35 -209q0 -91 27 -161t77 -117.5t120 -72t157 -24.5q55 0 103 7.5t91 20t81.5 28.5t73.5 34l-68 -305q-74 -31 -163.5 -47.5t-201.5 -16.5q-150 0 -269 44.5
t-201 126.5t-125.5 196.5t-43.5 255.5q0 113 24 220.5t72.5 203t122 175.5t173 138t226 90.5t279.5 32.5q58 0 112 -6t103 -15.5t90.5 -21t73.5 -22.5zM1166 1567l-116 190l-197 -190h-211l303 327h250l168 -327h-197z" />
    <glyph glyph-name="ccircumflex" unicode="&#x109;" horiz-adv-x="946" 
d="M901 743q-34 26 -88 45t-117 19q-73 0 -132 -34t-100 -88t-63 -121t-22 -132q0 -103 48 -159t144 -56q30 0 62.5 6t64.5 16.5t61.5 23.5t53.5 28l-49 -242q-68 -35 -145 -54.5t-154 -19.5q-100 0 -175.5 31t-126.5 87t-76.5 133.5t-25.5 170.5q0 86 19.5 167.5
t56.5 153.5t91.5 133t125 105t156 68.5t184.5 24.5q46 0 87 -5.5t75 -14t60 -19t42 -19.5zM847 1186l-116 190l-197 -190h-211l303 327h250l168 -327h-197z" />
    <glyph glyph-name="Cdotaccent" unicode="&#x10a;" horiz-adv-x="1300" 
d="M1313 1087q-30 16 -64.5 32t-75.5 28.5t-88.5 20.5t-103.5 8q-130 0 -229.5 -44.5t-167.5 -119.5t-103 -174t-35 -209q0 -91 27 -161t77 -117.5t120 -72t157 -24.5q55 0 103 7.5t91 20t81.5 28.5t73.5 34l-68 -305q-74 -31 -163.5 -47.5t-201.5 -16.5q-150 0 -269 44.5
t-201 126.5t-125.5 196.5t-43.5 255.5q0 113 24 220.5t72.5 203t122 175.5t173 138t226 90.5t279.5 32.5q58 0 112 -6t103 -15.5t90.5 -21t73.5 -22.5zM1192 1706q0 -28 -11 -53.5t-30.5 -44.5t-47.5 -30t-63 -11q-34 0 -62.5 11t-48.5 30t-31 44.5t-11 53.5q0 30 11.5 54.5
t32 42t48.5 27t61 9.5q68 0 110 -37t42 -96z" />
    <glyph glyph-name="cdotaccent" unicode="&#x10b;" horiz-adv-x="946" 
d="M901 743q-34 26 -88 45t-117 19q-73 0 -132 -34t-100 -88t-63 -121t-22 -132q0 -103 48 -159t144 -56q30 0 62.5 6t64.5 16.5t61.5 23.5t53.5 28l-49 -242q-68 -35 -145 -54.5t-154 -19.5q-100 0 -175.5 31t-126.5 87t-76.5 133.5t-25.5 170.5q0 86 19.5 167.5
t56.5 153.5t91.5 133t125 105t156 68.5t184.5 24.5q46 0 87 -5.5t75 -14t60 -19t42 -19.5zM881 1325q0 -28 -11 -53.5t-30.5 -44.5t-47.5 -30t-63 -11q-34 0 -62.5 11t-48.5 30t-31 44.5t-11 53.5q0 30 11.5 54.5t32 42t48.5 27t61 9.5q68 0 110 -37t42 -96z" />
    <glyph glyph-name="Emacron" unicode="&#x112;" horiz-adv-x="1085" 
d="M1124 1171h-501l-68 -323h467l-57 -264h-465l-70 -322h535l-56 -262h-860l305 1434h826zM1084 1567h-586l37 172h586z" />
    <glyph glyph-name="emacron" unicode="&#x113;" horiz-adv-x="1065" 
d="M1051 760q0 -79 -33.5 -145t-112 -114t-208.5 -75.5t-324 -30.5q-2 -6 -2 -10.5v-9.5q0 -31 10 -62t34.5 -56t64.5 -40.5t100 -15.5q36 0 78.5 6.5t86.5 19t87.5 30t80.5 38.5l-49 -236q-31 -16 -71 -31t-86.5 -27t-99 -19t-107.5 -7q-116 0 -199 34t-136.5 91.5
t-78.5 134.5t-25 164q0 131 43.5 249t124 207t194 141.5t253.5 52.5q101 0 172 -24t116 -64.5t66 -92.5t21 -108zM750 756q0 37 -27.5 61.5t-77.5 24.5q-44 0 -84.5 -19t-74 -52.5t-57.5 -80t-36 -100.5q180 -2 268.5 41t88.5 125zM935 1186h-586l37 172h586z" />
    <glyph glyph-name="Ebreve" unicode="&#x114;" horiz-adv-x="1085" 
d="M1124 1171h-501l-68 -323h467l-57 -264h-465l-70 -322h535l-56 -262h-860l305 1434h826zM1190 1874q-20 -68 -53 -124.5t-79.5 -97t-106 -63t-131.5 -22.5q-53 0 -100 15.5t-81.5 45.5t-54.5 74.5t-20 103.5q0 17 2.5 33t7.5 35h162q-2 -8 -3 -17.5t-1 -17.5
q0 -51 32 -77.5t78 -26.5q130 0 178 139h170v0z" />
    <glyph glyph-name="ebreve" unicode="&#x115;" horiz-adv-x="1065" 
d="M1051 760q0 -79 -33.5 -145t-112 -114t-208.5 -75.5t-324 -30.5q-2 -6 -2 -10.5v-9.5q0 -31 10 -62t34.5 -56t64.5 -40.5t100 -15.5q36 0 78.5 6.5t86.5 19t87.5 30t80.5 38.5l-49 -236q-31 -16 -71 -31t-86.5 -27t-99 -19t-107.5 -7q-116 0 -199 34t-136.5 91.5
t-78.5 134.5t-25 164q0 131 43.5 249t124 207t194 141.5t253.5 52.5q101 0 172 -24t116 -64.5t66 -92.5t21 -108zM750 756q0 37 -27.5 61.5t-77.5 24.5q-44 0 -84.5 -19t-74 -52.5t-57.5 -80t-36 -100.5q180 -2 268.5 41t88.5 125zM1044 1493q-20 -68 -53 -124.5t-79.5 -97
t-106 -63t-131.5 -22.5q-53 0 -100 15.5t-81.5 45.5t-54.5 74.5t-20 103.5q0 17 2.5 33t7.5 35h162q-2 -8 -3 -17.5t-1 -17.5q0 -51 32 -77.5t78 -26.5q130 0 178 139h170v0z" />
    <glyph glyph-name="Edotaccent" unicode="&#x116;" horiz-adv-x="1085" 
d="M1124 1171h-501l-68 -323h467l-57 -264h-465l-70 -322h535l-56 -262h-860l305 1434h826zM980 1706q0 -28 -11 -53.5t-30.5 -44.5t-47.5 -30t-63 -11q-34 0 -62.5 11t-48.5 30t-31 44.5t-11 53.5q0 30 11.5 54.5t32 42t48.5 27t61 9.5q68 0 110 -37t42 -96z" />
    <glyph glyph-name="edotaccent" unicode="&#x117;" horiz-adv-x="1065" 
d="M1051 760q0 -79 -33.5 -145t-112 -114t-208.5 -75.5t-324 -30.5q-2 -6 -2 -10.5v-9.5q0 -31 10 -62t34.5 -56t64.5 -40.5t100 -15.5q36 0 78.5 6.5t86.5 19t87.5 30t80.5 38.5l-49 -236q-31 -16 -71 -31t-86.5 -27t-99 -19t-107.5 -7q-116 0 -199 34t-136.5 91.5
t-78.5 134.5t-25 164q0 131 43.5 249t124 207t194 141.5t253.5 52.5q101 0 172 -24t116 -64.5t66 -92.5t21 -108zM750 756q0 37 -27.5 61.5t-77.5 24.5q-44 0 -84.5 -19t-74 -52.5t-57.5 -80t-36 -100.5q180 -2 268.5 41t88.5 125zM855 1325q0 -28 -11 -53.5t-30.5 -44.5
t-47.5 -30t-63 -11q-34 0 -62.5 11t-48.5 30t-31 44.5t-11 53.5q0 30 11.5 54.5t32 42t48.5 27t61 9.5q68 0 110 -37t42 -96z" />
    <glyph glyph-name="Gcircumflex" unicode="&#x11c;" horiz-adv-x="1452" 
d="M1370 1081q-31 21 -72 40.5t-89.5 34t-103 23.5t-112.5 9q-125 0 -225.5 -40.5t-171 -114t-108 -177t-37.5 -229.5q0 -91 25 -163t71.5 -121t112.5 -75t147 -26q54 0 89.5 6.5t64.5 15.5l61 291h-291l55 258h613l-154 -727q-43 -21 -94 -40.5t-111 -35.5t-129 -25.5
t-149 -9.5q-154 0 -275.5 46t-204.5 130t-127 201.5t-44 259.5q0 112 25 218.5t74.5 200.5t124 172.5t174 135t224.5 88t275 31.5q68 0 129.5 -7.5t115.5 -19.5t99.5 -26.5t81.5 -28.5zM1165 1567l-116 190l-197 -190h-211l303 327h250l168 -327h-197z" />
    <glyph glyph-name="gcircumflex" unicode="&#x11d;" horiz-adv-x="1214" 
d="M999 123q-28 -134 -75 -245t-127 -190.5t-201 -124t-297 -44.5q-97 0 -179 20.5t-153 54.5l56 254q63 -42 138 -69t158 -27q78 0 136.5 21t101 62t70.5 101.5t45 139.5l18 90h-4q-26 -39 -57 -73.5t-68.5 -60.5t-83 -41.5t-102.5 -15.5q-78 0 -136.5 28.5t-98 79.5
t-59.5 122t-20 157t18.5 170.5t55.5 161t93 141.5t130.5 112.5t167.5 74.5t205 27q62 0 123.5 -4.5t120 -12t111.5 -17t98 -18.5zM775.5 824.5q-30.5 2.5 -64.5 2.5q-69 0 -129.5 -34t-105.5 -93t-71 -139t-26 -172q0 -37 7.5 -68.5t23.5 -54.5t39.5 -36t54.5 -13
q40 0 73.5 16t61 43.5t49 63.5t38.5 76t29.5 81t20.5 78l53 242q-23 5 -53.5 7.5zM952 1186l-116 190l-197 -190h-211l303 327h250l168 -327h-197z" />
    <glyph glyph-name="Gdotaccent" unicode="&#x120;" horiz-adv-x="1452" 
d="M1370 1081q-31 21 -72 40.5t-89.5 34t-103 23.5t-112.5 9q-125 0 -225.5 -40.5t-171 -114t-108 -177t-37.5 -229.5q0 -91 25 -163t71.5 -121t112.5 -75t147 -26q54 0 89.5 6.5t64.5 15.5l61 291h-291l55 258h613l-154 -727q-43 -21 -94 -40.5t-111 -35.5t-129 -25.5
t-149 -9.5q-154 0 -275.5 46t-204.5 130t-127 201.5t-44 259.5q0 112 25 218.5t74.5 200.5t124 172.5t174 135t224.5 88t275 31.5q68 0 129.5 -7.5t115.5 -19.5t99.5 -26.5t81.5 -28.5zM1207 1706q0 -28 -11 -53.5t-30.5 -44.5t-47.5 -30t-63 -11q-34 0 -62.5 11t-48.5 30
t-31 44.5t-11 53.5q0 30 11.5 54.5t32 42t48.5 27t61 9.5q68 0 110 -37t42 -96z" />
    <glyph glyph-name="gdotaccent" unicode="&#x121;" horiz-adv-x="1214" 
d="M999 123q-28 -134 -75 -245t-127 -190.5t-201 -124t-297 -44.5q-97 0 -179 20.5t-153 54.5l56 254q63 -42 138 -69t158 -27q78 0 136.5 21t101 62t70.5 101.5t45 139.5l18 90h-4q-26 -39 -57 -73.5t-68.5 -60.5t-83 -41.5t-102.5 -15.5q-78 0 -136.5 28.5t-98 79.5
t-59.5 122t-20 157t18.5 170.5t55.5 161t93 141.5t130.5 112.5t167.5 74.5t205 27q62 0 123.5 -4.5t120 -12t111.5 -17t98 -18.5zM775.5 824.5q-30.5 2.5 -64.5 2.5q-69 0 -129.5 -34t-105.5 -93t-71 -139t-26 -172q0 -37 7.5 -68.5t23.5 -54.5t39.5 -36t54.5 -13
q40 0 73.5 16t61 43.5t49 63.5t38.5 76t29.5 81t20.5 78l53 242q-23 5 -53.5 7.5zM947 1325q0 -28 -11 -53.5t-30.5 -44.5t-47.5 -30t-63 -11q-34 0 -62.5 11t-48.5 30t-31 44.5t-11 53.5q0 30 11.5 54.5t32 42t48.5 27t61 9.5q68 0 110 -37t42 -96z" />
    <glyph glyph-name="Gcommaaccent" unicode="&#x122;" horiz-adv-x="1452" 
d="M1370 1081q-31 21 -72 40.5t-89.5 34t-103 23.5t-112.5 9q-125 0 -225.5 -40.5t-171 -114t-108 -177t-37.5 -229.5q0 -91 25 -163t71.5 -121t112.5 -75t147 -26q54 0 89.5 6.5t64.5 15.5l61 291h-291l55 258h613l-154 -727q-43 -21 -94 -40.5t-111 -35.5t-129 -25.5
t-149 -9.5q-154 0 -275.5 46t-204.5 130t-127 201.5t-44 259.5q0 112 25 218.5t74.5 200.5t124 172.5t174 135t224.5 88t275 31.5q68 0 129.5 -7.5t115.5 -19.5t99.5 -26.5t81.5 -28.5zM845 -111l-168 -352h-194l90 352h272z" />
    <glyph glyph-name="gcommaaccent" unicode="&#x123;" horiz-adv-x="1214" 
d="M999 123q-28 -134 -75 -245t-127 -190.5t-201 -124t-297 -44.5q-97 0 -179 20.5t-153 54.5l56 254q63 -42 138 -69t158 -27q78 0 136.5 21t101 62t70.5 101.5t45 139.5l18 90h-4q-26 -39 -57 -73.5t-68.5 -60.5t-83 -41.5t-102.5 -15.5q-78 0 -136.5 28.5t-98 79.5
t-59.5 122t-20 157t18.5 170.5t55.5 161t93 141.5t130.5 112.5t167.5 74.5t205 27q62 0 123.5 -4.5t120 -12t111.5 -17t98 -18.5zM829 817q-23 5 -53.5 7.5t-64.5 2.5q-69 0 -129.5 -34t-105.5 -93t-71 -139t-26 -172q0 -37 7.5 -68.5t23.5 -54.5t39.5 -36t54.5 -13
q40 0 73.5 16t61 43.5t49 63.5t38.5 76t29.5 81t20.5 78l53 242v0zM598 1186l243 352h194l-165 -352h-272z" />
    <glyph glyph-name="Hcircumflex" unicode="&#x124;" horiz-adv-x="1565" 
d="M1290 0h-325l122 580h-589l-123 -580h-326l305 1434h326l-123 -572h590l123 572h325zM1145 1567l-116 190l-197 -190h-211l303 327h250l168 -327h-197z" />
    <glyph glyph-name="hcircumflex" unicode="&#x125;" horiz-adv-x="1225" 
d="M1151 780q0 -15 -3 -40t-7.5 -52t-9.5 -52.5t-9 -43.5l-125 -592h-317l123 584l12 66t6 52q0 50 -25.5 77.5t-74.5 27.5q-39 0 -82.5 -24.5t-82.5 -65.5t-70 -96t-44 -117l-106 -504h-320l322 1516h319l-147 -689h4q37 48 81.5 88.5t94 70t102 46.5t103.5 17
q125 0 190.5 -69.5t65.5 -199.5zM1018 1649l-116 190l-197 -190h-211l303 327h250l168 -327h-197z" />
    <glyph glyph-name="Hbar" unicode="&#x126;" horiz-adv-x="1565" 
d="M1290 0h-325l122 580h-589l-123 -580h-326l216 1018h-163l44 205h163l45 211h326l-46 -211h590l46 211h325l-45 -211h165l-44 -205h-165zM1147 862l33 156h-590l-33 -156h590z" />
    <glyph glyph-name="hbar" unicode="&#x127;" horiz-adv-x="1225" 
d="M1151 780q0 -15 -3 -40t-7.5 -52t-9.5 -52.5t-9 -43.5l-125 -592h-317l123 584l12 66t6 52q0 50 -25.5 77.5t-74.5 27.5q-39 0 -82.5 -24.5t-82.5 -65.5t-70 -96t-44 -117l-106 -504h-320l251 1179h-112l33 159h112l38 178h319l-38 -178h328l-33 -159h-328l-76 -352h4
q37 48 81.5 88.5t94 70t102 46.5t103.5 17q125 0 190.5 -69.5t65.5 -199.5z" />
    <glyph glyph-name="Itilde" unicode="&#x128;" horiz-adv-x="649" 
d="M375 0h-326l303 1434h326zM934 1850q-10 -72 -34 -125t-58.5 -88t-77 -52.5t-90.5 -17.5q-51 0 -86.5 13t-63 28l-52 28t-54.5 13q-25 0 -44 -8.5t-32 -22.5t-21 -32t-11 -37h-154q7 61 28.5 112.5t55 89t79 59t101.5 21.5q50 0 83 -13t60 -28t53 -28t60 -13
q41 0 68.5 26.5t34.5 74.5h155v0z" />
    <glyph glyph-name="itilde" unicode="&#x129;" horiz-adv-x="650" 
d="M535 9q-18 -5 -41.5 -10t-50 -9.5t-55 -7t-56.5 -2.5q-67 0 -114.5 17.5t-78.5 49t-45.5 75t-14.5 95.5q0 22 2.5 49t6.5 56.5t9.5 60t11.5 58.5q4 17 13.5 62.5l22 104.5l26.5 124.5l26.5 124.5l22 104.5t13.5 62.5h320l-122 -576q-8 -35 -17 -78.5t-9 -75.5
q0 -38 24 -53t55 -15q26 0 52.5 5.5t48.5 14.5l-25 -118.5zM829 1487q-10 -72 -34 -125t-58.5 -88t-77 -52.5t-90.5 -17.5q-51 0 -86.5 13t-63 28l-52 28t-54.5 13q-25 0 -44 -8.5t-32 -22.5t-21 -32t-11 -37h-154q7 61 28.5 112.5t55 89t79 59t101.5 21.5q50 0 83 -13
t60 -28t53 -28t60 -13q41 0 68.5 26.5t34.5 74.5h155v0z" />
    <glyph glyph-name="Imacron" unicode="&#x12a;" horiz-adv-x="649" 
d="M375 0h-326l303 1434h326zM819 1567h-586l37 172h586z" />
    <glyph glyph-name="imacron" unicode="&#x12b;" horiz-adv-x="650" 
d="M535 9q-18 -5 -41.5 -10t-50 -9.5t-55 -7t-56.5 -2.5q-67 0 -114.5 17.5t-78.5 49t-45.5 75t-14.5 95.5q0 22 2.5 49t6.5 56.5t9.5 60t11.5 58.5q4 17 13.5 62.5l22 104.5l26.5 124.5l26.5 124.5l22 104.5t13.5 62.5h320l-122 -576q-8 -35 -17 -78.5t-9 -75.5
q0 -38 24 -53t55 -15q26 0 52.5 5.5t48.5 14.5l-25 -118.5zM695 1186h-586l37 172h586z" />
    <glyph glyph-name="Ibreve" unicode="&#x12c;" horiz-adv-x="649" 
d="M375 0h-326l303 1434h326zM935 1874q-20 -68 -53 -124.5t-79.5 -97t-106 -63t-131.5 -22.5q-53 0 -100 15.5t-81.5 45.5t-54.5 74.5t-20 103.5q0 17 2.5 33t7.5 35h162q-2 -8 -3 -17.5t-1 -17.5q0 -51 32 -77.5t78 -26.5q130 0 178 139h170v0z" />
    <glyph glyph-name="ibreve" unicode="&#x12d;" horiz-adv-x="650" 
d="M535 9q-18 -5 -41.5 -10t-50 -9.5t-55 -7t-56.5 -2.5q-67 0 -114.5 17.5t-78.5 49t-45.5 75t-14.5 95.5q0 22 2.5 49t6.5 56.5t9.5 60t11.5 58.5q4 17 13.5 62.5l22 104.5l26.5 124.5l26.5 124.5l22 104.5t13.5 62.5h320l-122 -576q-8 -35 -17 -78.5t-9 -75.5
q0 -38 24 -53t55 -15q26 0 52.5 5.5t48.5 14.5l-25 -118.5zM750 1493q-20 -68 -53 -124.5t-79.5 -97t-106 -63t-131.5 -22.5q-53 0 -100 15.5t-81.5 45.5t-54.5 74.5t-20 103.5q0 17 2.5 33t7.5 35h162q-2 -8 -3 -17.5t-1 -17.5q0 -51 32 -77.5t78 -26.5q130 0 178 139h170
v0z" />
    <glyph glyph-name="Iogonek" unicode="&#x12e;" horiz-adv-x="649" 
d="M375 0h-33q-45 -43 -75 -75.5t-48 -58t-25.5 -45.5t-7.5 -38q0 -72 76 -72q23 0 51 8t45 17l-29 -142q-20 -11 -55.5 -19.5t-79.5 -8.5q-52 0 -89 12.5t-61 35t-35 53.5t-11 67q0 65 46.5 128t145.5 138h-141l303 1434h326z" />
    <glyph glyph-name="iogonek" unicode="&#x12f;" horiz-adv-x="650" 
d="M535 9q-32 -8 -79.5 -17t-98.5 -11q-39 -38 -64.5 -67.5t-41.5 -52.5t-22.5 -42t-6.5 -36q0 -72 76 -72q23 0 51 8t45 17l-29 -142q-20 -11 -55.5 -19.5t-79.5 -8.5q-52 0 -89 12.5t-61 35t-35 53.5t-11 67q0 60 45 127.5t135 137.5q-71 26 -103 83.5t-32 134.5
q0 22 2.5 49t6.5 56.5t9.5 60t11.5 58.5q4 17 13.5 62.5l22 104.5l26.5 124.5l26.5 124.5l22 104.5t13.5 62.5h320l-122 -576q-8 -35 -17 -78.5t-9 -75.5q0 -38 24 -53t55 -15q26 0 52.5 5.5t48.5 14.5l-25 -118.5zM639 1354q0 -39 -15 -70t-40.5 -53.5t-60 -34.5t-74.5 -12
q-38 0 -70.5 11.5t-56 32t-37 48.5t-13.5 61q0 39 14.5 70t40 53.5t60.5 34.5t76 12q38 0 70 -11.5t55.5 -32t37 -48.5t13.5 -61z" />
    <glyph glyph-name="Jcircumflex" unicode="&#x134;" horiz-adv-x="907" 
d="M762 573q-29 -138 -80 -248.5t-128 -188.5t-181.5 -119.5t-241.5 -41.5q-24 0 -55 4t-61.5 10t-57.5 14t-43 15l59 299q15 -12 36 -23.5t44.5 -20t47.5 -14t46 -5.5q113 0 184.5 79.5t106.5 248.5l183 852h325zM948 1567l-116 190l-197 -190h-211l303 327h250l168 -327
h-197z" />
    <glyph glyph-name="jcircumflex" unicode="&#x135;" horiz-adv-x="578" 
d="M346 53q-23 -108 -61.5 -205t-101 -170t-152.5 -116t-215 -43q-44 0 -88 9t-72 23l51 242q9 -6 21.5 -12t27 -10.5t29.5 -7.5t27 -3q75 0 127 61t81 199l213 1004h320zM577 1186l-116 190l-197 -190h-211l303 327h250l168 -327h-197z" />
    <glyph glyph-name="Kcommaaccent" unicode="&#x136;" horiz-adv-x="1333" 
d="M1434 1348.5l-115.5 -123l-136 -141l-136 -141l-115.5 -123t-75 -85.5q13 -33 43 -91.5l68.5 -129l82 -147l82 -147l68.5 -129t43 -91.5h-393q-9 26 -32 75l-53.5 109l-64.5 125.5l-64.5 125.5l-54 108.5t-32.5 74.5q-8 17 -15 38.5t-10 33.5h-4l-145 -690h-326l305 1434
h326l-141 -666h4q11 15 25.5 33l23.5 30q20 25 61.5 72.5l93 106l108.5 122.5l108.5 122.5l92 106t58.5 73.5h395q-24 -30 -75 -85.5zM752 -111l-168 -352h-194l90 352h272z" />
    <glyph glyph-name="kcommaaccent" unicode="&#x137;" horiz-adv-x="1151" 
d="M764 541l264 -541h-352l-225 532h-5l-112 -532h-318l322 1516h319l-200 -936h4l407 444h375zM636 -111l-168 -352h-194l90 352h272z" />
    <glyph glyph-name="kgreenlandic" unicode="&#x138;" horiz-adv-x="1151" 
d="M764 541l264 -541h-352l-225 532h-5l-112 -532h-318l217 1024h319l-95 -444h4l407 444h375z" />
    <glyph glyph-name="Lcommaaccent" unicode="&#x13b;" horiz-adv-x="1049" 
d="M690 -229q0 -45 -20 -86t-62 -72.5t-105.5 -50.5t-150.5 -19q-30 0 -57.5 2l-52.5 4l31 138q42 -9 75 -9q66 0 103 21.5t37 56.5q0 64 -111 64h-22t-25 -2l43 182h-324l305 1434h326l-248 -1168h529l-56 -266h-378l-19 -82q40 -2 73.5 -11.5t57.5 -27.5t37.5 -45
t13.5 -63z" />
    <glyph glyph-name="lcommaaccent" unicode="&#x13c;" horiz-adv-x="650" 
d="M535 9q-18 -5 -41.5 -10t-50 -9.5t-55 -7t-56.5 -2.5h-11l-14 -62q40 -2 73.5 -11.5t57.5 -27.5t37.5 -45t13.5 -63q0 -45 -20 -86t-62 -72.5t-105.5 -50.5t-150.5 -19q-30 0 -57.5 2l-52.5 4l31 138q42 -9 75 -9q66 0 103 21.5t37 56.5q0 64 -111 64h-22t-25 -2l47 199
q-51 31 -74 82.5t-23 117.5q0 22 2.5 49t6.5 56.5t9.5 60t11.5 58.5q3 13 13.5 63.5l26.5 124.5l35 164.5l39.5 185l39.5 185l35 164.5l26.5 124.5t13.5 63.5h320l-227 -1068q-8 -35 -17 -78.5t-9 -75.5q0 -38 24 -53t55 -15q26 0 52.5 5.5t48.5 14.5l-25 -118.5z" />
    <glyph glyph-name="Ncommaaccent" unicode="&#x145;" horiz-adv-x="1636" 
d="M1362 0h-295l-449 911q-6 12 -13 28l-14 32.5l-13 31.5t-9 27h-6l-11 -83t-17 -91l-183 -856h-303l303 1434h320l430 -877l12.5 -26.5l15 -32t14 -32.5t9.5 -28h4q1 15 3 33.5t5 37.5t6.5 37t6.5 32l182 856h305zM852 -111l-168 -352h-194l90 352h272z" />
    <glyph glyph-name="ncommaaccent" unicode="&#x146;" horiz-adv-x="1225" 
d="M1151 780q0 -15 -3 -40t-7.5 -52t-9.5 -52.5t-9 -43.5l-125 -592h-317l123 584l12 66t6 52q0 48 -24.5 76.5t-73.5 28.5q-41 0 -85.5 -25.5t-83.5 -67.5t-68.5 -96.5t-41.5 -111.5l-106 -506h-322l152 702l18 92.5t16 89t12.5 79t8.5 61.5h312l-6.5 -58.5l-7 -58.5
t-6.5 -49.5t-5 -30.5h4q35 46 79 86.5t93.5 70.5t102.5 47.5t106 17.5q127 0 191.5 -70.5t64.5 -198.5zM631 -111l-168 -352h-194l90 352h272z" />
    <glyph glyph-name="Eng" unicode="&#x14a;" horiz-adv-x="1636" 
d="M618 911q-6 12 -13 28l-14 32.5l-13 31.5t-9 27h-6l-11 -83t-17 -91l-183 -856h-303l303 1434h349l400 -892l12.5 -26.5l15 -32t14 -32.5t9.5 -28h4q1 15 3 33.5t5 37.5t6.5 37t6.5 32l183 871h305l-299 -1414q-18 -86 -58 -165.5t-110 -140.5t-174 -97.5t-250 -36.5
q-30 0 -62.5 4t-62.5 10t-56 13.5t-42 15.5l59 299q15 -12 38.5 -23.5t49.5 -20t52.5 -14t48.5 -5.5q95 0 151 42.5t74 108.5z" />
    <glyph glyph-name="eng" unicode="&#x14b;" horiz-adv-x="1225" 
d="M1005 36q-18 -88 -53.5 -171t-96 -147.5t-149.5 -104t-214 -39.5q-44 0 -88 9t-72 23l51 242q9 -6 21.5 -12t27 -10.5t29.5 -7.5t27 -3q75 0 127 61t81 199l107 509q7 32 12.5 66t5.5 52q0 48 -24.5 76.5t-73.5 28.5q-41 0 -85.5 -25.5t-83.5 -67.5t-68.5 -96.5
t-41.5 -111.5l-106 -506h-322l152 702l18 92.5t16 89t12.5 79t8.5 61.5h312l-6.5 -58.5l-7 -58.5t-6.5 -49.5t-5 -30.5h4q35 46 79 86.5t93.5 70.5t102.5 47.5t106 17.5q127 0 191.5 -70.5t64.5 -198.5q0 -15 -3 -40t-7.5 -52t-9.5 -52.5t-9 -43.5z" />
    <glyph glyph-name="Omacron" unicode="&#x14c;" horiz-adv-x="1554" 
d="M1511 842q0 -86 -15 -173t-44.5 -168.5t-74 -156.5t-103.5 -137q-50 -53 -109 -96t-128.5 -73t-150.5 -46.5t-175 -16.5q-142 0 -253.5 47t-188.5 129.5t-117.5 195.5t-40.5 245q0 93 16 183.5t48.5 174t81 159t112.5 138.5q50 48 108 86.5t125 66.5t144 43t165 15
q133 0 243.5 -42t189.5 -121.5t123 -194t44 -258.5zM1169 831q0 81 -20.5 145t-58.5 108.5t-92.5 68t-123.5 23.5q-80 0 -152 -37t-128 -103q-34 -40 -60 -92t-44 -110t-27.5 -118.5t-9.5 -119.5q0 -81 20.5 -145t58.5 -107.5t91.5 -66.5t119.5 -23q82 0 156.5 36t130.5 107
q35 42 61 94.5t43 109.5t26 116t9 114zM1250 1567h-586l37 172h586z" />
    <glyph glyph-name="omacron" unicode="&#x14d;" horiz-adv-x="1178" 
d="M1116 618q0 -71 -14 -146t-44 -146.5t-77.5 -135.5t-115 -111.5t-156 -75.5t-201.5 -28q-114 0 -198.5 33t-139.5 91t-82 137.5t-27 171.5q0 74 15 150.5t46.5 147.5t80.5 133.5t117 109t155.5 73.5t196.5 27q107 0 189.5 -30.5t139 -87t86 -136t29.5 -177.5zM797 614
q0 42 -10 77.5t-29.5 61t-47.5 40t-65 14.5q-63 0 -112.5 -36t-83.5 -93t-52 -128t-18 -142q0 -91 42.5 -141t110.5 -50q65 0 114.5 35t83 91.5t50.5 127.5t17 143zM982 1186h-586l37 172h586z" />
    <glyph glyph-name="Obreve" unicode="&#x14e;" horiz-adv-x="1554" 
d="M1511 842q0 -86 -15 -173t-44.5 -168.5t-74 -156.5t-103.5 -137q-50 -53 -109 -96t-128.5 -73t-150.5 -46.5t-175 -16.5q-142 0 -253.5 47t-188.5 129.5t-117.5 195.5t-40.5 245q0 93 16 183.5t48.5 174t81 159t112.5 138.5q50 48 108 86.5t125 66.5t144 43t165 15
q133 0 243.5 -42t189.5 -121.5t123 -194t44 -258.5zM1169 831q0 81 -20.5 145t-58.5 108.5t-92.5 68t-123.5 23.5q-80 0 -152 -37t-128 -103q-34 -40 -60 -92t-44 -110t-27.5 -118.5t-9.5 -119.5q0 -81 20.5 -145t58.5 -107.5t91.5 -66.5t119.5 -23q82 0 156.5 36t130.5 107
q35 42 61 94.5t43 109.5t26 116t9 114zM1301 1874q-20 -68 -53 -124.5t-79.5 -97t-106 -63t-131.5 -22.5q-53 0 -100 15.5t-81.5 45.5t-54.5 74.5t-20 103.5q0 17 2.5 33t7.5 35h162q-2 -8 -3 -17.5t-1 -17.5q0 -51 32 -77.5t78 -26.5q130 0 178 139h170v0z" />
    <glyph glyph-name="obreve" unicode="&#x14f;" horiz-adv-x="1178" 
d="M1116 618q0 -71 -14 -146t-44 -146.5t-77.5 -135.5t-115 -111.5t-156 -75.5t-201.5 -28q-114 0 -198.5 33t-139.5 91t-82 137.5t-27 171.5q0 74 15 150.5t46.5 147.5t80.5 133.5t117 109t155.5 73.5t196.5 27q107 0 189.5 -30.5t139 -87t86 -136t29.5 -177.5zM797 614
q0 42 -10 77.5t-29.5 61t-47.5 40t-65 14.5q-63 0 -112.5 -36t-83.5 -93t-52 -128t-18 -142q0 -91 42.5 -141t110.5 -50q65 0 114.5 35t83 91.5t50.5 127.5t17 143zM1056 1493q-20 -68 -53 -124.5t-79.5 -97t-106 -63t-131.5 -22.5q-53 0 -100 15.5t-81.5 45.5t-54.5 74.5
t-20 103.5q0 17 2.5 33t7.5 35h162q-2 -8 -3 -17.5t-1 -17.5q0 -51 32 -77.5t78 -26.5q130 0 178 139h170v0z" />
    <glyph glyph-name="Rcommaaccent" unicode="&#x156;" horiz-adv-x="1311" 
d="M1305 1069q0 -91 -33 -164.5t-90 -127.5t-133.5 -88t-163.5 -46v-4q62 -20 106 -76t66 -149l100 -414h-346l-78 369q-18 89 -63 134.5t-123 45.5h-55l-117 -549h-326l305 1434h490q125 0 213 -29.5t143 -80t80 -116.5t25 -139zM961 1016q0 83 -49 129.5t-148 46.5h-135
l-86 -399h131q74 0 128 18.5t89 49t52.5 71t17.5 84.5zM733 -111l-168 -352h-194l90 352h272z" />
    <glyph glyph-name="rcommaaccent" unicode="&#x157;" horiz-adv-x="819" 
d="M831 733h-2q-21 11 -53.5 20t-60.5 9q-59 0 -106 -26.5t-83 -71.5t-60.5 -105.5t-39.5 -128.5l-90 -430h-320l140 653q10 47 19.5 97l18 98.5t15 93.5t10.5 82h313l-6.5 -60l-7 -59.5t-7 -51.5l-5.5 -36h4q62 115 130.5 173.5t158.5 58.5q26 0 51 -5t45 -8zM519 -111
l-168 -352h-194l90 352h272z" />
    <glyph glyph-name="Scircumflex" unicode="&#x15c;" horiz-adv-x="1100" 
d="M1067 1102q-31 19 -68.5 37.5t-80 32.5t-89.5 23t-98 9q-57 0 -96 -15.5t-62 -38.5t-33 -49.5t-10 -49.5q0 -33 10.5 -60.5t33 -53t59 -52t88.5 -58.5q68 -42 120.5 -84.5t89.5 -91t56 -105.5t19 -128q0 -41 -9.5 -90t-32.5 -98.5t-63.5 -95.5t-101.5 -81t-146.5 -56.5
t-199.5 -21.5q-64 0 -124.5 8.5t-115 23t-101.5 32.5t-83 37l55 284q37 -27 80.5 -51t91 -42t98.5 -28t103 -10q57 0 97 12.5t65 34.5t36 51t11 62t-10.5 59.5t-34.5 51t-63.5 51t-96.5 59.5q-61 34 -111 73.5t-86 88t-56 108t-20 132.5q0 83 31 163t97 143t168.5 101.5
t244.5 38.5q59 0 114 -6.5t105 -17.5t94 -25t80 -29zM919 1567l-116 190l-197 -190h-211l303 327h250l168 -327h-197z" />
    <glyph glyph-name="scircumflex" unicode="&#x15d;" horiz-adv-x="899" 
d="M817 768q-21 11 -49 22t-59.5 20t-64.5 15t-64 6q-73 0 -104.5 -28t-31.5 -68q0 -41 31 -67t82 -52q60 -29 105 -58t75 -64t45 -78.5t15 -100.5q0 -61 -25 -122t-81 -109.5t-147.5 -78.5t-224.5 -30q-38 0 -81 4t-85 11t-80.5 17t-68.5 22l47 241q26 -14 60 -28
t72.5 -25.5t79.5 -19t81 -7.5q75 0 111.5 26t36.5 71q0 38 -28 66.5t-97 60.5q-57 27 -100.5 56t-73.5 64t-45 78t-15 97q0 57 22.5 117.5t74.5 110t137.5 81t210.5 31.5q38 0 78 -3.5t78 -9.5t72 -14t60 -16zM754 1186l-116 190l-197 -190h-211l303 327h250l168 -327h-197z
" />
    <glyph glyph-name="Tbar" unicode="&#x166;" horiz-adv-x="1200" 
d="M1303 1171h-404l-78 -366h236l-57 -266h-235l-114 -539h-325l113 539h-237l57 266h236l78 366h-409l57 263h1139z" />
    <glyph glyph-name="tbar" unicode="&#x167;" horiz-adv-x="797" 
d="M776 791h-239l-31 -144h223l-34 -159h-223l-17 -80q-2 -13 -5 -28t-5.5 -30t-4.5 -28.5t-2 -22.5q0 -40 20 -59t66 -19q12 0 30.5 3t38 8t37.5 10.5t29 9.5l-49 -234q-18 -7 -44 -14t-57 -13t-64.5 -10t-65.5 -4q-76 0 -127 19.5t-81.5 54t-43 80.5t-12.5 100q0 16 2 37
t5.5 43t8 44.5l8.5 41.5l19 91h-143l34 159h142l30 144h-158l56 233h151l52 240l333 82l-67 -322h243z" />
    <glyph glyph-name="Utilde" unicode="&#x168;" horiz-adv-x="1481" 
d="M1343 584q-30 -141 -77 -254t-124.5 -192t-192.5 -121t-281 -42q-120 0 -216 33t-163 95.5t-103 152t-36 203.5q0 52 8 114.5t20 116.5l160 744h326l-162 -746q-11 -53 -20 -106t-9 -90q0 -58 17.5 -102.5t49 -74.5t74 -45.5t91.5 -15.5q57 0 106 17t88 56t69 103.5
t50 159.5l182 844h326zM1359 1819q-10 -72 -34 -125t-58.5 -88t-77 -52.5t-90.5 -17.5q-51 0 -86.5 13t-63 28l-52 28t-54.5 13q-25 0 -44 -8.5t-32 -22.5t-21 -32t-11 -37h-154q7 61 28.5 112.5t55 89t79 59t101.5 21.5q50 0 83 -13t60 -28t53 -28t60 -13q41 0 68.5 26.5
t34.5 74.5h155v0z" />
    <glyph glyph-name="utilde" unicode="&#x169;" horiz-adv-x="1225" 
d="M1051 340q-9 -45 -17 -93.5t-14 -93.5t-10 -84.5t-6 -68.5h-320q3 29 6.5 59t7.5 56.5l7 47.5t4 30h-4q-39 -49 -83.5 -89t-93 -68.5t-100 -44.5t-104.5 -16q-127 0 -192.5 70.5t-65.5 198.5q0 15 3 40t7.5 52l9 52.5t8.5 43.5l125 592h318l-123 -578q-4 -16 -7.5 -34
t-6 -35t-4 -31t-1.5 -22q0 -44 24 -70.5t70 -26.5q50 0 97 28t85 73t65.5 101t39.5 112l103 483h319zM1158 1487q-10 -72 -34 -125t-58.5 -88t-77 -52.5t-90.5 -17.5q-51 0 -86.5 13t-63 28l-52 28t-54.5 13q-25 0 -44 -8.5t-32 -22.5t-21 -32t-11 -37h-154q7 61 28.5 112.5
t55 89t79 59t101.5 21.5q50 0 83 -13t60 -28t53 -28t60 -13q41 0 68.5 26.5t34.5 74.5h155v0z" />
    <glyph glyph-name="Umacron" unicode="&#x16a;" horiz-adv-x="1481" 
d="M1343 584q-30 -141 -77 -254t-124.5 -192t-192.5 -121t-281 -42q-120 0 -216 33t-163 95.5t-103 152t-36 203.5q0 52 8 114.5t20 116.5l160 744h326l-162 -746q-11 -53 -20 -106t-9 -90q0 -58 17.5 -102.5t49 -74.5t74 -45.5t91.5 -15.5q57 0 106 17t88 56t69 103.5
t50 159.5l182 844h326zM1235 1567h-586l37 172h586z" />
    <glyph glyph-name="umacron" unicode="&#x16b;" horiz-adv-x="1225" 
d="M1051 340q-9 -45 -17 -93.5t-14 -93.5t-10 -84.5t-6 -68.5h-320q3 29 6.5 59t7.5 56.5l7 47.5t4 30h-4q-39 -49 -83.5 -89t-93 -68.5t-100 -44.5t-104.5 -16q-127 0 -192.5 70.5t-65.5 198.5q0 15 3 40t7.5 52l9 52.5t8.5 43.5l125 592h318l-123 -578q-4 -16 -7.5 -34
t-6 -35t-4 -31t-1.5 -22q0 -44 24 -70.5t70 -26.5q50 0 97 28t85 73t65.5 101t39.5 112l103 483h319zM1037 1186h-586l37 172h586z" />
    <glyph glyph-name="Ubreve" unicode="&#x16c;" horiz-adv-x="1481" 
d="M1343 584q-30 -141 -77 -254t-124.5 -192t-192.5 -121t-281 -42q-120 0 -216 33t-163 95.5t-103 152t-36 203.5q0 52 8 114.5t20 116.5l160 744h326l-162 -746q-11 -53 -20 -106t-9 -90q0 -58 17.5 -102.5t49 -74.5t74 -45.5t91.5 -15.5q57 0 106 17t88 56t69 103.5
t50 159.5l182 844h326zM1321 1874q-20 -68 -53 -124.5t-79.5 -97t-106 -63t-131.5 -22.5q-53 0 -100 15.5t-81.5 45.5t-54.5 74.5t-20 103.5q0 17 2.5 33t7.5 35h162q-2 -8 -3 -17.5t-1 -17.5q0 -51 32 -77.5t78 -26.5q130 0 178 139h170v0z" />
    <glyph glyph-name="ubreve" unicode="&#x16d;" horiz-adv-x="1225" 
d="M1051 340q-9 -45 -17 -93.5t-14 -93.5t-10 -84.5t-6 -68.5h-320q3 29 6.5 59t7.5 56.5l7 47.5t4 30h-4q-39 -49 -83.5 -89t-93 -68.5t-100 -44.5t-104.5 -16q-127 0 -192.5 70.5t-65.5 198.5q0 15 3 40t7.5 52l9 52.5t8.5 43.5l125 592h318l-123 -578q-4 -16 -7.5 -34
t-6 -35t-4 -31t-1.5 -22q0 -44 24 -70.5t70 -26.5q50 0 97 28t85 73t65.5 101t39.5 112l103 483h319zM1108 1493q-20 -68 -53 -124.5t-79.5 -97t-106 -63t-131.5 -22.5q-53 0 -100 15.5t-81.5 45.5t-54.5 74.5t-20 103.5q0 17 2.5 33t7.5 35h162q-2 -8 -3 -17.5t-1 -17.5
q0 -51 32 -77.5t78 -26.5q130 0 178 139h170v0z" />
    <glyph glyph-name="Uogonek" unicode="&#x172;" horiz-adv-x="1481" 
d="M1343 584q-28 -132 -70.5 -239t-110.5 -185t-167.5 -124.5t-240.5 -56.5q-38 -38 -63.5 -66.5t-41 -51.5t-22 -42t-6.5 -36q0 -72 76 -72q23 0 51 8t45 17l-29 -142q-20 -11 -55.5 -19.5t-79.5 -8.5q-52 0 -89 12.5t-61 35t-35 53.5t-11 67q0 60 39.5 118t123.5 126
q-104 9 -187 46t-140.5 98.5t-88 146.5t-30.5 190q0 52 8 114.5t20 116.5l160 744h326l-162 -746q-11 -53 -20 -106t-9 -90q0 -58 17.5 -102.5t49 -74.5t74 -45.5t91.5 -15.5q57 0 106 17t88 56t69 103.5t50 159.5l182 844h326z" />
    <glyph glyph-name="uogonek" unicode="&#x173;" horiz-adv-x="1225" 
d="M1051 340q-9 -45 -17 -93.5t-14 -93.5t-10 -84.5t-6 -68.5h-63q-45 -43 -75 -75.5t-48 -58t-25.5 -45.5t-7.5 -38q0 -72 76 -72q23 0 51 8t45 17l-29 -142q-20 -11 -55.5 -19.5t-79.5 -8.5q-52 0 -89 12.5t-61 35t-35 53.5t-11 67q0 65 46.5 128t145.5 138h-105
q3 29 6.5 59t7.5 56.5l7 47.5t4 30h-4q-39 -49 -83.5 -89t-93 -68.5t-100 -44.5t-104.5 -16q-127 0 -192.5 70.5t-65.5 198.5q0 15 3 40t7.5 52l9 52.5t8.5 43.5l125 592h318l-123 -578q-4 -16 -7.5 -34t-6 -35t-4 -31t-1.5 -22q0 -44 24 -70.5t70 -26.5q50 0 97 28t85 73
t65.5 101t39.5 112l103 483h319z" />
    <glyph glyph-name="Wcircumflex" unicode="&#x174;" horiz-adv-x="2064" 
d="M1550 0h-344l-61 930q-1 15 0.5 36t4 43t5.5 42.5t6 35.5h-4q-5 -16 -12.5 -37l-15.5 -43l-16 -42t-15 -35l-455 -930h-369l-73 1434h340l10 -951q1 -17 -0.5 -39t-4.5 -44t-6 -41.5l-5 -32.5h6q4 15 11 35.5t15.5 43t18 44l16.5 36.5l461 949h342l47 -961
q1 -14 0.5 -32.5t-1.5 -38.5t-3 -39.5t-4 -34.5h4q4 14 10.5 34t14 41l15 41l13.5 35l397 955h338zM1397 1567l-116 190l-197 -190h-211l303 327h250l168 -327h-197z" />
    <glyph glyph-name="wcircumflex" unicode="&#x175;" horiz-adv-x="1628" 
d="M1200 0h-328l-24 606q0 31 2.5 69t5.5 62h-4q-4 -15 -9.5 -32t-12 -35l-13 -34.5t-12.5 -29.5l-285 -606h-334l-69 1024h303v-666q0 -23 -2.5 -58t-7.5 -58h6q4 10 9.5 26l11.5 33.5l12 34.5t12 29l311 659h305l19 -664q0 -11 -0.5 -28t-2 -34.5t-3 -33t-3.5 -24.5h7
l8 26l11 34t12 34l10 26l268 664h307zM1096 1186l-116 190l-197 -190h-211l303 327h250l168 -327h-197z" />
    <glyph glyph-name="Ycircumflex" unicode="&#x176;" horiz-adv-x="1245" 
d="M776 520l-108 -520h-326l109 514l-258 920h350l114 -545q8 -34 9.5 -63t3.5 -52h2q11 28 24.5 57t28.5 54l350 549h363zM988 1567l-116 190l-197 -190h-211l303 327h250l168 -327h-197z" />
    <glyph glyph-name="ycircumflex" unicode="&#x177;" horiz-adv-x="1102" 
d="M551 -90q-51 -89 -105.5 -161.5t-118.5 -123.5t-141.5 -78.5t-175.5 -27.5q-34 0 -81.5 6.5t-88.5 21.5l54 244q21 -15 52 -23t62 -8q59 0 110 27.5t89 89.5l82 129l-199 1018h332l72 -623q3 -34 4 -73t-2 -64h4l23 62t34 75l313 623h332zM825 1186l-116 190l-197 -190
h-211l303 327h250l168 -327h-197z" />
    <glyph glyph-name="longs" unicode="&#x17f;" horiz-adv-x="701" 
d="M873 1270q-28 11 -61.5 19.5t-65.5 8.5q-71 0 -109 -39t-57 -122l-321 -1477h-316l324 1511q42 187 156.5 278t310.5 91q51 0 102.5 -8t85.5 -19z" />
    <glyph glyph-name="Aringacute" unicode="&#x1fa;" horiz-adv-x="1440" 
d="M985 0l-41 319h-512l-170 -319h-364l815 1411q-23 25 -35 59t-12 72q0 60 22.5 104t58.5 72.5t81.5 42t91.5 13.5q57 0 103.5 -17t79.5 -47t50.5 -72t17.5 -92q0 -43 -15.5 -79.5t-41.5 -61.5l201 -1405h-330zM1024 1546q0 40 -29 68t-80 28q-24 0 -43 -8.5t-32 -22
t-20 -30.5t-7 -35q0 -42 27 -71t75 -29q23 0 42.5 7.5t34.5 21t23.5 32t8.5 39.5zM866 1049q-2 16 -2.5 34.5t0.5 35t2 30t2 20.5h-8q-3 -15 -15.5 -48.5t-31.5 -67.5l-263 -486h370zM982 1857h-235l315 325h289z" />
    <glyph glyph-name="aringacute" unicode="&#x1fb;" horiz-adv-x="1214" 
d="M1044 338q-7 -31 -13.5 -75t-12 -91.5t-9 -93t-3.5 -78.5h-320q0 15 1.5 38.5t3.5 48t4.5 48t4.5 39.5h-4q-29 -39 -60 -75t-69 -63.5t-84.5 -44t-107.5 -16.5q-75 0 -133.5 27t-98.5 78t-61 124.5t-21 166.5q0 47 10.5 115.5t38 144t76.5 150t125.5 134.5t185 97
t255.5 37q57 0 114.5 -4.5t113 -12t107.5 -17.5t97 -20zM829 817q-23 5 -51 7.5t-53 2.5q-69 0 -121 -23t-90.5 -60t-64.5 -84t-41.5 -95.5t-22 -94.5t-6.5 -81q0 -37 7.5 -68.5t23.5 -54.5t39.5 -36t54.5 -13q57 0 101.5 33t78 84.5t56 116t36.5 127.5l53 239v0zM1022 1378
q0 -54 -21 -95t-55 -69t-78 -42.5t-90 -14.5q-49 0 -92 15t-74.5 43t-50 68t-18.5 89q0 56 21 97.5t55 69t77 41t87 13.5q54 0 98.5 -16t75.5 -44.5t48 -68t17 -86.5zM881 1376q0 38 -27.5 66t-75.5 28q-23 0 -41 -8.5t-30 -22t-18.5 -30t-6.5 -33.5q0 -40 25 -67t71 -27
q44 0 73.5 26t29.5 68zM882 1659h-235l315 325h289z" />
    <glyph glyph-name="AEacute" unicode="&#x1fc;" horiz-adv-x="1933" 
d="M1950 1171h-504l-68 -323h467l-55 -264h-467l-70 -322h535l-55 -262h-859l68 319h-477l-229 -319h-379l1083 1434h1065zM1071 1174l-418 -588h344l125 588h-51zM1510 1567h-235l315 325h289z" />
    <glyph glyph-name="aeacute" unicode="&#x1fd;" horiz-adv-x="1761" 
d="M1747 760q0 -79 -33.5 -145t-112.5 -114t-209.5 -75.5t-324.5 -30.5v-18q0 -31 10 -62.5t34 -57t64 -41t101 -15.5q36 0 78.5 6.5t86.5 19t87.5 30t81.5 38.5l-49 -236q-31 -16 -71.5 -31t-87.5 -27t-99 -19t-107 -7q-145 0 -247 60.5t-144 179.5h-4q-33 -45 -74 -88.5
t-91 -77t-111 -54t-134 -20.5q-74 0 -135 26.5t-104.5 76t-67 121t-23.5 161.5q0 52 12.5 123.5t43.5 148t82 151.5t128.5 134t183 95.5t245.5 36.5q108 0 196.5 -21t147.5 -43q60 32 130.5 48t147.5 16q91 0 160 -22t115.5 -61t70 -91.5t23.5 -114.5zM1444 756
q0 37 -27.5 61.5t-75.5 24.5q-43 0 -82.5 -18t-73 -51t-58 -79.5t-37.5 -103.5q180 -2 267 41.5t87 124.5zM870 807q-20 8 -51.5 14t-60.5 6q-72 0 -128.5 -23t-98.5 -61t-71 -86t-47 -97.5t-26 -96.5t-8 -82q0 -75 28 -119.5t80 -44.5q40 0 77.5 24t72 67t66.5 102t61 129
q4 11 15.5 46l26.5 77t32 82.5t32 62.5zM1126 1186h-235l315 325h289z" />
    <glyph glyph-name="Oslashacute" unicode="&#x1fe;" horiz-adv-x="1554" 
d="M1405 1221q51 -78 78.5 -173t27.5 -210q0 -86 -16 -174.5t-48 -172.5t-80.5 -162t-113.5 -143q-97 -98 -231 -154.5t-315 -56.5q-118 0 -214 35t-165 90l-166 -176l-121 119l172 178q-50 78 -76 170.5t-26 200.5q0 187 64.5 356.5t195.5 296.5q49 48 106.5 86.5t124 66.5
t143.5 43t166 15q115 0 209 -32t166 -85l148 154l118 -117zM1090 1133q-36 32 -90 52.5t-117 20.5q-48 0 -91 -10.5t-80.5 -29.5t-69.5 -44.5t-56 -54.5q-34 -40 -63 -93t-50 -114.5t-33 -128.5t-12 -135q0 -37 4 -68.5t12 -62.5l646 668v0zM1194 834q0 80 -23 143
l-649 -674q40 -40 93.5 -61t119.5 -21q88 0 160 34.5t131 96.5q41 43 72.5 100.5t52.5 121.5t32 131t11 129zM927 1567h-235l315 325h289z" />
    <glyph glyph-name="oslashacute" unicode="&#x1ff;" horiz-adv-x="1178" 
d="M1061 848q55 -95 55 -230q0 -73 -14.5 -149t-45 -147.5t-78.5 -134.5t-115.5 -110t-155.5 -74.5t-199 -27.5q-91 0 -163.5 22t-125.5 64l-137 -127l-102 119l135 127q-28 50 -41 107.5t-13 120.5q0 74 14.5 150t46 147t80 133.5t116 109.5t156 74t198.5 27q88 0 157 -22
t123 -62l158 147l102 -121zM758 782q-40 43 -107 43q-73 0 -130 -32.5t-96.5 -87t-60 -126.5t-20.5 -151q0 -8 1 -15.5t1 -15.5l412 385v0zM831 600v18.5t-2 18.5l-413 -389q20 -22 49 -35.5t63 -13.5q75 0 131.5 32t94.5 87t57.5 128t19.5 154zM716 1186h-235l315 325h289z
" />
    <glyph glyph-name="anoteleia" unicode="&#x387;" horiz-adv-x="568" 
d="M496 682q0 -77 -56 -125q-55 -47 -139 -47q-78 0 -128 44t-50 110q0 39 15 71t41.5 54.5t62 35t76.5 12.5q79 0 128 -43q24 -21 37 -49.5t13 -62.5z" />
    <glyph glyph-name="Wgrave" unicode="&#x1e80;" horiz-adv-x="2064" 
d="M1550 0h-344l-61 930q-1 15 0.5 36t4 43t5.5 42.5t6 35.5h-4q-5 -16 -12.5 -37l-15.5 -43l-16 -42t-15 -35l-455 -930h-369l-73 1434h340l10 -951q1 -17 -0.5 -39t-4.5 -44t-6 -41.5l-5 -32.5h6q4 15 11 35.5t15.5 43t18 44l16.5 36.5l461 949h342l47 -961
q1 -14 0.5 -32.5t-1.5 -38.5t-3 -39.5t-4 -34.5h4q4 14 10.5 34t14 41l15 41l13.5 35l397 955h338zM1198 1567l-260 325h264l209 -325h-213z" />
    <glyph glyph-name="wgrave" unicode="&#x1e81;" horiz-adv-x="1628" 
d="M1200 0h-328l-24 606q0 31 2.5 69t5.5 62h-4q-4 -15 -9.5 -32t-12 -35l-13 -34.5t-12.5 -29.5l-285 -606h-334l-69 1024h303v-666q0 -23 -2.5 -58t-7.5 -58h6q4 10 9.5 26l11.5 33.5l12 34.5t12 29l311 659h305l19 -664q0 -11 -0.5 -28t-2 -34.5t-3 -33t-3.5 -24.5h7
l8 26l11 34t12 34l10 26l268 664h307zM962 1186l-260 325h264l209 -325h-213z" />
    <glyph glyph-name="Wacute" unicode="&#x1e82;" horiz-adv-x="2064" 
d="M1550 0h-344l-61 930q-1 15 0.5 36t4 43t5.5 42.5t6 35.5h-4q-5 -16 -12.5 -37l-15.5 -43l-16 -42t-15 -35l-455 -930h-369l-73 1434h340l10 -951q1 -17 -0.5 -39t-4.5 -44t-6 -41.5l-5 -32.5h6q4 15 11 35.5t15.5 43t18 44l16.5 36.5l461 949h342l47 -961
q1 -14 0.5 -32.5t-1.5 -38.5t-3 -39.5t-4 -34.5h4q4 14 10.5 34t14 41l15 41l13.5 35l397 955h338zM1252 1567h-235l315 325h289z" />
    <glyph glyph-name="wacute" unicode="&#x1e83;" horiz-adv-x="1628" 
d="M1200 0h-328l-24 606q0 31 2.5 69t5.5 62h-4q-4 -15 -9.5 -32t-12 -35l-13 -34.5t-12.5 -29.5l-285 -606h-334l-69 1024h303v-666q0 -23 -2.5 -58t-7.5 -58h6q4 10 9.5 26l11.5 33.5l12 34.5t12 29l311 659h305l19 -664q0 -11 -0.5 -28t-2 -34.5t-3 -33t-3.5 -24.5h7
l8 26l11 34t12 34l10 26l268 664h307zM959 1186h-235l315 325h289z" />
    <glyph glyph-name="Wdieresis" unicode="&#x1e84;" horiz-adv-x="2064" 
d="M1550 0h-344l-61 930q-1 15 0.5 36t4 43t5.5 42.5t6 35.5h-4q-5 -16 -12.5 -37l-15.5 -43l-16 -42t-15 -35l-455 -930h-369l-73 1434h340l10 -951q1 -17 -0.5 -39t-4.5 -44t-6 -41.5l-5 -32.5h6q4 15 11 35.5t15.5 43t18 44l16.5 36.5l461 949h342l47 -961
q1 -14 0.5 -32.5t-1.5 -38.5t-3 -39.5t-4 -34.5h4q4 14 10.5 34t14 41l15 41l13.5 35l397 955h338zM1645 1706q0 -29 -10.5 -54.5t-30.5 -44t-48.5 -29.5t-63.5 -11t-63.5 11t-48.5 30t-31 44.5t-11 53.5q0 30 11.5 55t32.5 42.5t49 27.5t61 10q34 0 62 -10t48.5 -28
t31.5 -43t11 -54zM1188 1706q0 -29 -11 -54.5t-31 -44t-48 -29.5t-63 -11q-34 0 -63 11t-49.5 30t-32 44.5t-11.5 53.5q0 30 12 55t33 42.5t49.5 27.5t61.5 10q34 0 62 -10t48.5 -28t31.5 -43t11 -54z" />
    <glyph glyph-name="wdieresis" unicode="&#x1e85;" horiz-adv-x="1628" 
d="M1200 0h-328l-24 606q0 31 2.5 69t5.5 62h-4q-4 -15 -9.5 -32t-12 -35l-13 -34.5t-12.5 -29.5l-285 -606h-334l-69 1024h303v-666q0 -23 -2.5 -58t-7.5 -58h6q4 10 9.5 26l11.5 33.5l12 34.5t12 29l311 659h305l19 -664q0 -11 -0.5 -28t-2 -34.5t-3 -33t-3.5 -24.5h7
l8 26l11 34t12 34l10 26l268 664h307zM1324 1325q0 -29 -10.5 -54.5t-30.5 -44t-48.5 -29.5t-63.5 -11t-63.5 11t-48.5 30t-31 44.5t-11 53.5q0 30 11.5 55t32.5 42.5t49 27.5t61 10q34 0 62 -10t48.5 -28t31.5 -43t11 -54zM867 1325q0 -29 -11 -54.5t-31 -44t-48 -29.5
t-63 -11q-34 0 -63 11t-49.5 30t-32 44.5t-11.5 53.5q0 30 12 55t33 42.5t49.5 27.5t61.5 10q34 0 62 -10t48.5 -28t31.5 -43t11 -54z" />
    <glyph glyph-name="Ygrave" unicode="&#x1ef2;" horiz-adv-x="1245" 
d="M776 520l-108 -520h-326l109 514l-258 920h350l114 -545q8 -34 9.5 -63t3.5 -52h2q11 28 24.5 57t28.5 54l350 549h363zM822 1567l-260 325h264l209 -325h-213z" />
    <glyph glyph-name="ygrave" unicode="&#x1ef3;" horiz-adv-x="1102" 
d="M551 -90q-51 -89 -105.5 -161.5t-118.5 -123.5t-141.5 -78.5t-175.5 -27.5q-34 0 -81.5 6.5t-88.5 21.5l54 244q21 -15 52 -23t62 -8q59 0 110 27.5t89 89.5l82 129l-199 1018h332l72 -623q3 -34 4 -73t-2 -64h4l23 62t34 75l313 623h332zM692 1186l-260 325h264
l209 -325h-213z" />
    <glyph glyph-name="quotereversed" unicode="&#x201b;" horiz-adv-x="594" 
d="M500 1024h-195l-192 444h272z" />
    <glyph glyph-name="radicalex" unicode="&#x203e;" horiz-adv-x="850" 
d="M0 1397v119h850v-119h-850z" />
    <glyph glyph-name="lira" unicode="&#x20a4;" horiz-adv-x="1177" 
d="M592 478q-20 -44 -55 -83q-32 -106 -129 -155h626l-25 -120l-25 -120h-974l24.5 113.5l24.5 113.5q84 22 137 70t81 117q18 29 30 64h-174l16.5 79.5t16.5 80.5h178q8 35 15 70t15 70h-178l16.5 78.5l16.5 78.5h179q5 22 9 43t9 42q3 14 7 27.5t9 26.5q27 89 74 160.5
t113 121t150 76t184 26.5q74 0 133 -16.5t93 -33.5l-27.5 -127l-27.5 -127q-14 11 -35.5 22.5t-46.5 20.5t-52.5 14.5t-53.5 5.5q-15 0 -29 -3q-82 -8 -134 -67t-74 -162q-2 -12 -5 -24.5t-5 -25.5h266q-8 -39 -17 -78.5t-17 -78.5h-266q-8 -35 -15 -70t-15 -70h267
q-8 -41 -17 -80.5l-18 -79.5h-275z" />
    <glyph glyph-name="estimated" unicode="&#x212e;" horiz-adv-x="1229" 
d="M1144 530h-828l1 -370q120 -121 296 -121q255 0 396 246l71 -43q-96 -140 -196 -204q-115 -73 -270 -73q-237 0 -383 161t-146 404q0 245 139 402q146 164 387 164q244 0 387 -163q134 -152 146 -403zM912 604v297q-130 123 -303 123q-174 0 -293 -123v-297h596z" />
    <glyph glyph-name="oneeighth" unicode="&#x215b;" horiz-adv-x="1974" 
d="M125 584l37 174h174l104 475l-200 -41l39 180l421 82l-149 -696h172l-37 -174h-561zM514 0h-244l1196 1434h244zM1846 255q0 -56 -21.5 -106t-66.5 -87.5t-115.5 -59.5t-168.5 -22q-75 0 -134 17.5t-100 48t-62.5 73t-21.5 91.5q0 50 18.5 88.5t49.5 67.5t72.5 49
t86.5 33v2q-22 12 -41.5 30.5t-34.5 41.5t-24 49t-9 54q0 62 28 108.5t75 77t110 45.5t132 15q72 0 127.5 -16.5t93 -45t56.5 -66t19 -78.5q0 -45 -16 -80t-44.5 -61.5t-67.5 -45.5t-86 -31q0 -1 -0.5 -1t-0.5 -1q72 -26 109 -78t37 -112zM1696 637q0 33 -26 55.5t-71 22.5
q-50 0 -83 -24t-33 -66q0 -30 19 -56t64 -46q130 34 130 114zM1632 246q0 38 -25 71t-79 54q-72 -21 -112.5 -57t-40.5 -87q0 -42 32.5 -66.5t86.5 -24.5q63 0 100.5 30.5t37.5 79.5z" />
    <glyph glyph-name="threeeighths" unicode="&#x215c;" horiz-adv-x="1974" 
d="M754 827q0 -44 -19 -91t-63 -85.5t-116 -63t-179 -24.5q-34 0 -73 3.5t-76 10t-68 15t-50 18.5l39 176q16 -10 42 -19.5t56.5 -17.5t63.5 -13t64 -5q44 0 75 9t50.5 24.5t28.5 35t9 40.5q0 44 -36.5 68t-126.5 24h-105l37 168h107q42 0 75 9t55.5 24t34 34.5t11.5 40.5
q0 35 -28.5 56.5t-90.5 21.5q-51 0 -102.5 -13.5t-92.5 -33.5l39 176q42 16 103.5 27.5t124.5 11.5q60 0 109.5 -14.5t84 -41.5t53.5 -66t19 -87q0 -42 -15 -77.5t-42.5 -64t-65.5 -48.5t-84 -31v-4q74 -17 113 -66t39 -127zM514 0h-244l1196 1434h244zM1846 255
q0 -56 -21.5 -106t-66.5 -87.5t-115.5 -59.5t-168.5 -22q-75 0 -134 17.5t-100 48t-62.5 73t-21.5 91.5q0 50 18.5 88.5t49.5 67.5t72.5 49t86.5 33v2q-22 12 -41.5 30.5t-34.5 41.5t-24 49t-9 54q0 62 28 108.5t75 77t110 45.5t132 15q72 0 127.5 -16.5t93 -45t56.5 -66
t19 -78.5q0 -45 -16 -80t-44.5 -61.5t-67.5 -45.5t-86 -31q0 -1 -0.5 -1t-0.5 -1q72 -26 109 -78t37 -112zM1696 637q0 33 -26 55.5t-71 22.5q-50 0 -83 -24t-33 -66q0 -30 19 -56t64 -46q130 34 130 114zM1632 246q0 38 -25 71t-79 54q-72 -21 -112.5 -57t-40.5 -87
q0 -42 32.5 -66.5t86.5 -24.5q63 0 100.5 30.5t37.5 79.5z" />
    <glyph glyph-name="fiveeighths" unicode="&#x215d;" horiz-adv-x="1974" 
d="M346 563q-66 0 -124.5 11t-103.5 33l36 171q18 -11 41.5 -20.5t49 -16t51.5 -10.5t50 -4q95 0 138.5 36t43.5 93q0 52 -37.5 78t-115.5 26q-20 0 -44 -1t-46.5 -3t-41.5 -4t-29 -4l104 488h509l-35 -166h-328l-33 -153q16 2 33.5 2h34.5q59 0 106 -17.5t79.5 -48.5
t49.5 -74t17 -93q0 -68 -24.5 -127t-75 -102.5t-126.5 -68.5t-179 -25zM514 0h-244l1196 1434h244zM1846 255q0 -56 -21.5 -106t-66.5 -87.5t-115.5 -59.5t-168.5 -22q-75 0 -134 17.5t-100 48t-62.5 73t-21.5 91.5q0 50 18.5 88.5t49.5 67.5t72.5 49t86.5 33v2
q-22 12 -41.5 30.5t-34.5 41.5t-24 49t-9 54q0 62 28 108.5t75 77t110 45.5t132 15q72 0 127.5 -16.5t93 -45t56.5 -66t19 -78.5q0 -45 -16 -80t-44.5 -61.5t-67.5 -45.5t-86 -31q0 -1 -0.5 -1t-0.5 -1q72 -26 109 -78t37 -112zM1696 637q0 33 -26 55.5t-71 22.5
q-50 0 -83 -24t-33 -66q0 -30 19 -56t64 -46q130 34 130 114zM1632 246q0 38 -25 71t-79 54q-72 -21 -112.5 -57t-40.5 -87q0 -42 32.5 -66.5t86.5 -24.5q63 0 100.5 30.5t37.5 79.5z" />
    <glyph glyph-name="seveneighths" unicode="&#x215e;" horiz-adv-x="1974" 
d="M445 584h-234l466 691h-406l35 163h631l-21 -100zM460 0h-244l1196 1434h244zM1792 255q0 -56 -21.5 -106t-66.5 -87.5t-115.5 -59.5t-168.5 -22q-75 0 -134 17.5t-100 48t-62.5 73t-21.5 91.5q0 50 18.5 88.5t49.5 67.5t72.5 49t86.5 33v2q-22 12 -41.5 30.5t-34.5 41.5
t-24 49t-9 54q0 62 28 108.5t75 77t110 45.5t132 15q72 0 127.5 -16.5t93 -45t56.5 -66t19 -78.5q0 -45 -16 -80t-44.5 -61.5t-67.5 -45.5t-86 -31q0 -1 -0.5 -1t-0.5 -1q72 -26 109 -78t37 -112zM1642 637q0 33 -26 55.5t-71 22.5q-50 0 -83 -24t-33 -66q0 -30 19 -56
t64 -46q130 34 130 114zM1578 246q0 38 -25 71t-79 54q-72 -21 -112.5 -57t-40.5 -87q0 -42 32.5 -66.5t86.5 -24.5q63 0 100.5 30.5t37.5 79.5z" />
    <glyph glyph-name="commaaccent" horiz-adv-x="1024" 
d="M729 -117l-243 -352h-194l165 352h272z" />
    <glyph glyph-name="undercommaaccent" horiz-adv-x="1303" 
d="M845 -111l-168 -352h-194l90 352h272z" />
    <glyph glyph-name="uni037E" unicode="&#x37e;" horiz-adv-x="555" 
d="M537 879q0 -39 -15 -70.5t-41.5 -54t-61.5 -35t-75 -12.5q-38 0 -70.5 12t-56 32.5t-36.5 49t-13 61.5q0 39 14.5 71.5t40 55t61 35t76.5 12.5q38 0 70.5 -12t56 -33t37 -49.5t13.5 -62.5zM119 -254h-256l229 506h299z" />
    <glyph glyph-name="tonos" unicode="&#x384;" horiz-adv-x="649" 
d="M601 1508l-280 -340h-169l168 340h281z" />
    <glyph glyph-name="dieresistonos" unicode="&#x385;" horiz-adv-x="867" 
d="M892 1311q0 -54 -38.5 -90.5t-104.5 -36.5q-32 0 -58.5 10t-45 27.5t-28.5 40.5t-10 49q0 28 11 51t30 39.5t45 25.5t56 9q32 0 58 -9.5t45 -26t29.5 -39.5t10.5 -50zM683 1584l-112.5 -186l-111.5 -186h-147l53 186l53 186h265v0zM279 1311q0 -27 -10 -50t-29 -40.5
t-45 -27t-59 -9.5q-32 0 -58 10t-45 27.5t-29 40.5t-10 49q0 28 11 51t30 39.5t45 25.5t56 9q64 0 103.5 -35t39.5 -90z" />
    <glyph glyph-name="Alphatonos" unicode="&#x386;" horiz-adv-x="1491" 
d="M1036 0l-41 319h-514l-168 -319h-364l827 1434h385l205 -1434h-330zM919 1051q-1 16 -1.5 35.5t0 37.5t1.5 32.5t2 21.5h-6q-2 -9 -7 -23t-11.5 -30.5t-15 -34.5t-17.5 -35l-262 -488h369zM524 1435l-280 -340h-169l168 340h281z" />
    <glyph glyph-name="Epsilontonos" unicode="&#x388;" horiz-adv-x="1359" 
d="M1397 1171h-501l-68 -323h467l-57 -264h-465l-70 -322h535l-56 -262h-860l305 1434h826zM522 1435l-280 -340h-169l168 340h281z" />
    <glyph glyph-name="Etatonos" unicode="&#x389;" horiz-adv-x="1839" 
d="M1565 0h-325l122 580h-589l-123 -580h-326l305 1434h326l-123 -572h590l123 572h325zM522 1435l-280 -340h-169l168 340h281z" />
    <glyph glyph-name="Iotatonos" unicode="&#x38a;" horiz-adv-x="923" 
d="M649 0h-326l303 1434h326zM522 1435l-280 -340h-169l168 340h281z" />
    <glyph glyph-name="Omicrontonos" unicode="&#x38c;" horiz-adv-x="1789" 
d="M1745 842q0 -86 -15 -173t-44.5 -168.5t-74 -156.5t-103.5 -137q-50 -53 -109 -96t-128.5 -73t-150.5 -46.5t-175 -16.5q-142 0 -253.5 47t-188.5 129.5t-117.5 195.5t-40.5 245q0 93 16 183.5t48.5 174t81 159t112.5 138.5q50 48 108 86.5t125 66.5t144 43t165 15
q133 0 243.5 -42t189.5 -121.5t123 -194t44 -258.5zM1403 831q0 81 -20.5 145t-58.5 108.5t-92.5 68t-123.5 23.5q-80 0 -152 -37t-128 -103q-34 -40 -60 -92t-44 -110t-27.5 -118.5t-9.5 -119.5q0 -81 20.5 -145t58.5 -107.5t91.5 -66.5t119.5 -23q82 0 156.5 36t130.5 107
q35 42 61 94.5t43 109.5t26 116t9 114zM522 1435l-280 -340h-169l168 340h281z" />
    <glyph glyph-name="Upsilontonos" unicode="&#x38e;" horiz-adv-x="1641" 
d="M1171 520l-108 -520h-326l109 514l-258 920h350l114 -545q8 -34 9.5 -63t3.5 -52h2q11 28 24.5 57t28.5 54l350 549h363zM522 1435l-280 -340h-169l168 340h281z" />
    <glyph glyph-name="Omegatonos" unicode="&#x38f;" horiz-adv-x="1860" 
d="M1846 898q0 -118 -36 -217t-98.5 -179t-146 -140.5t-179.5 -101.5h332l-55 -260h-600l64 306q83 42 151 97t116 124t74 152t26 182q0 66 -20.5 124t-60.5 101t-99 68t-135 25q-84 0 -162 -30t-138 -90t-95.5 -151t-35.5 -213q0 -67 12.5 -123t35 -104t53 -88t66.5 -74
l-65 -306h-599l54 260h352q-46 32 -92 80.5t-82.5 110t-59 135.5t-22.5 158q0 172 63 305t171 224t252.5 138t307.5 47q146 0 266 -41t205.5 -114.5t132.5 -176.5t47 -228zM522 1435l-280 -340h-169l168 340h281z" />
    <glyph glyph-name="iotadieresistonos" unicode="&#x390;" horiz-adv-x="650" 
d="M535 9q-27 -10 -76.5 -19.5t-110.5 -9.5q-67 0 -117 17.5t-84 49t-51 75t-17 95.5q0 22 2.5 49t6.5 56.5t9.5 60t11.5 58.5q4 17 13.5 62.5l22 104.5l26.5 124.5l26.5 124.5l22 104.5t13.5 62.5h320l-122 -576q-8 -35 -17 -78.5t-9 -75.5q0 -38 24 -53t55 -15
q26 0 52.5 5.5t48.5 14.5l-25 -118.5zM914 1311q0 -54 -38.5 -90.5t-104.5 -36.5q-32 0 -58.5 10t-45 27.5t-28.5 40.5t-10 49q0 28 11 51t30 39.5t45 25.5t56 9q32 0 58 -9.5t45 -26t29.5 -39.5t10.5 -50zM705 1584l-112.5 -186l-111.5 -186h-147l53 186l53 186h265v0z
M301 1311q0 -27 -10 -50t-29 -40.5t-45 -27t-59 -9.5q-32 0 -58 10t-45 27.5t-29 40.5t-10 49q0 28 11 51t30 39.5t45 25.5t56 9q64 0 103.5 -35t39.5 -90z" />
    <glyph glyph-name="Alpha" unicode="&#x391;" horiz-adv-x="1440" 
d="M985 0l-41 319h-514l-168 -319h-364l827 1434h385l205 -1434h-330zM868 1051q-1 16 -1.5 35.5t0 37.5t1.5 32.5t2 21.5h-6q-2 -9 -7 -23t-11.5 -30.5t-15 -34.5t-17.5 -35l-262 -488h369z" />
    <glyph glyph-name="Beta" unicode="&#x392;" horiz-adv-x="1327" 
d="M1296 1110q0 -67 -22 -125t-65.5 -104.5t-107.5 -79.5t-149 -49v-4q68 -10 119 -36.5t85.5 -65.5t51.5 -88t17 -105q0 -97 -38 -179.5t-114 -143.5t-189.5 -95.5t-265.5 -34.5h-569l305 1434h508q117 0 199.5 -24.5t134.5 -68t76 -103t24 -128.5zM956 1047
q0 35 -10.5 62.5t-33.5 46.5t-60 29.5t-90 10.5h-133l-74 -340h152q58 0 104 13.5t78.5 38.5t49.5 60.5t17 78.5zM883 451q0 75 -52 120t-155 45h-170l-82 -378h180q74 0 127 16.5t86.5 45.5t49.5 67.5t16 83.5z" />
    <glyph glyph-name="Epsilon" unicode="&#x395;" horiz-adv-x="1085" 
d="M1124 1171h-501l-68 -323h467l-57 -264h-465l-70 -322h535l-56 -262h-860l305 1434h826z" />
    <glyph glyph-name="Zeta" unicode="&#x396;" horiz-adv-x="1243" 
d="M1350 1253l-910 -991h701l-56 -262h-1155l39 186l922 985h-660l56 263h1102z" />
    <glyph glyph-name="Eta" unicode="&#x397;" horiz-adv-x="1565" 
d="M1290 0h-325l122 580h-589l-123 -580h-326l305 1434h326l-123 -572h590l123 572h325z" />
    <glyph glyph-name="Iota" unicode="&#x399;" horiz-adv-x="649" 
d="M375 0h-326l303 1434h326z" />
    <glyph glyph-name="Kappa" unicode="&#x39a;" horiz-adv-x="1333" 
d="M1434 1348.5l-115.5 -123l-136 -141l-136 -141l-115.5 -123t-75 -85.5q13 -33 43 -91.5l68.5 -129l82 -147l82 -147l68.5 -129t43 -91.5h-393q-9 26 -32 75l-53.5 109l-64.5 125.5l-64.5 125.5l-54 108.5t-32.5 74.5q-8 17 -15 38.5t-10 33.5h-4l-145 -690h-326l305 1434
h326l-141 -666h4q11 15 25.5 33l23.5 30q20 25 61.5 72.5l93 106l108.5 122.5l108.5 122.5l92 106t58.5 73.5h395q-24 -30 -75 -85.5z" />
    <glyph glyph-name="Lambda" unicode="&#x39b;" horiz-adv-x="1457" 
d="M967 0l-87 1019q-2 25 -3 62t-1 67h-8l-8.5 -22t-13 -31t-17 -36.5l-18.5 -37.5l-528 -1021h-363l800 1434h407l184 -1434h-344z" />
    <glyph glyph-name="Mu" unicode="&#x39c;" horiz-adv-x="1781" 
d="M1505 0h-290l182 858q30 137 78 307h-8q-14 -32 -29.5 -64l-30.5 -60.5l-28 -51t-23 -36.5l-384 -523h-226l-149 513q-5 15 -9.5 47.5t-4.5 67.5v107h-9q-14 -94 -27.5 -173t-24.5 -133l-183 -859h-291l305 1434h384l147 -498q7 -24 13 -51.5t10 -55t6 -53t2 -45.5h5
q11 22 23.5 49.5l26 56t28.5 55t30 46.5l366 496h416z" />
    <glyph glyph-name="Nu" unicode="&#x39d;" horiz-adv-x="1636" 
d="M1362 0h-295l-449 911q-6 12 -13 28l-14 32.5l-13 31.5t-9 27h-6l-11 -83t-17 -91l-183 -856h-303l303 1434h320l430 -877l12.5 -26.5l15 -32t14 -32.5t9.5 -28h4q1 15 3 33.5t5 37.5t6.5 37t6.5 32l182 856h305z" />
    <glyph glyph-name="Xi" unicode="&#x39e;" horiz-adv-x="1143" 
d="M1192 1169h-972l56 265h973zM923 592h-678l55 262h678zM968 0h-1018l56 266h1019z" />
    <glyph glyph-name="Omicron" unicode="&#x39f;" horiz-adv-x="1554" 
d="M1511 842q0 -86 -15 -173t-44.5 -168.5t-74 -156.5t-103.5 -137q-50 -53 -109 -96t-128.5 -73t-150.5 -46.5t-175 -16.5q-142 0 -253.5 47t-188.5 129.5t-117.5 195.5t-40.5 245q0 93 16 183.5t48.5 174t81 159t112.5 138.5q50 48 108 86.5t125 66.5t144 43t165 15
q133 0 243.5 -42t189.5 -121.5t123 -194t44 -258.5zM1169 831q0 81 -20.5 145t-58.5 108.5t-92.5 68t-123.5 23.5q-80 0 -152 -37t-128 -103q-34 -40 -60 -92t-44 -110t-27.5 -118.5t-9.5 -119.5q0 -81 20.5 -145t58.5 -107.5t91.5 -66.5t119.5 -23q82 0 156.5 36t130.5 107
q35 42 61 94.5t43 109.5t26 116t9 114z" />
    <glyph glyph-name="Pi" unicode="&#x3a0;" horiz-adv-x="1539" 
d="M1269 0h-326l244 1152h-570l-243 -1152h-325l303 1434h1220z" />
    <glyph glyph-name="Rho" unicode="&#x3a1;" horiz-adv-x="1290" 
d="M1317 1026q0 -106 -37 -202.5t-115 -169.5t-198 -116.5t-287 -43.5h-201l-104 -494h-326l305 1434h492q122 0 211 -31.5t146.5 -86t85.5 -129t28 -161.5zM975 1004q0 83 -56 132.5t-165 49.5h-127l-95 -447h148q77 0 132.5 21.5t91.5 58t53.5 84.5t17.5 101z" />
    <glyph glyph-name="Sigma" unicode="&#x3a3;" horiz-adv-x="1185" 
d="M1236 1172h-580l291 -432l-522 -478h670l-55 -262h-1127l40 194l626 553l-356 520l34 167h1034z" />
    <glyph glyph-name="Tau" unicode="&#x3a4;" horiz-adv-x="1202" 
d="M1303 1171h-404l-248 -1171h-325l247 1171h-409l57 263h1139z" />
    <glyph glyph-name="Upsilon" unicode="&#x3a5;" horiz-adv-x="1245" 
d="M776 520l-108 -520h-326l109 514l-258 920h350l114 -545q8 -34 9.5 -63t3.5 -52h2q11 28 24.5 57t28.5 54l350 549h363z" />
    <glyph glyph-name="Chi" unicode="&#x3a7;" horiz-adv-x="1341" 
d="M928 709l284 -709h-366l-144 455q-4 11 -6.5 26t-4 30.5t-2.5 30t-1 23.5h-4q-8 -17 -20.5 -48t-30.5 -56l-344 -461h-400l615 739l-277 695h377l127 -441q3 -12 5.5 -27.5t4 -31.5t2 -30t0.5 -23h5l8 20.5t12 27.5t14.5 29.5t16.5 26.5l342 449h377z" />
    <glyph glyph-name="Psi" unicode="&#x3a8;" horiz-adv-x="1730" 
d="M1670 898q-30 -144 -87.5 -245.5t-140 -166t-188.5 -95.5t-235 -35h-48l-74 -356h-286l75 356h-36q-96 2 -177.5 29.5t-141 80t-93 129.5t-33.5 178q0 32 3.5 68t10.5 69l111 524h286l-108 -514q-6 -30 -9.5 -57.5t-3.5 -50.5q0 -90 55.5 -137.5t155.5 -47.5h35l173 807
h286l-172 -807h44q71 0 124 19.5t90.5 57.5t62.5 94.5t41 131.5l107 504h286z" />
    <glyph glyph-name="Omega" unicode="&#x3a9;" horiz-adv-x="1583" 
d="M1570 898q0 -118 -36 -217t-98.5 -179t-146 -140.5t-179.5 -101.5h332l-55 -260h-600l64 306q83 42 151 97t116 124t74 152t26 182q0 66 -20.5 124t-60.5 101t-99 68t-135 25q-84 0 -162 -30t-138 -90t-95.5 -151t-35.5 -213q0 -67 12.5 -123t35 -104t53 -88t66.5 -74
l-65 -306h-599l54 260h352q-46 32 -92 80.5t-82.5 110t-59 135.5t-22.5 158q0 172 63 305t171 224t252.5 138t307.5 47q146 0 266 -41t205.5 -114.5t132.5 -176.5t47 -228z" />
    <glyph glyph-name="Iotadieresis" unicode="&#x3aa;" horiz-adv-x="649" 
d="M375 0h-326l303 1434h326zM922 1706q0 -29 -10.5 -54.5t-30.5 -44t-48.5 -29.5t-63.5 -11t-63.5 11t-48.5 30t-31 44.5t-11 53.5q0 30 11.5 55t32.5 42.5t49 27.5t61 10q34 0 62 -10t48.5 -28t31.5 -43t11 -54zM465 1706q0 -29 -11 -54.5t-31 -44t-48 -29.5t-63 -11
q-34 0 -63 11t-49.5 30t-32 44.5t-11.5 53.5q0 30 12 55t33 42.5t49.5 27.5t61.5 10q34 0 62 -10t48.5 -28t31.5 -43t11 -54z" />
    <glyph glyph-name="Upsilondieresis" unicode="&#x3ab;" horiz-adv-x="1245" 
d="M776 520l-108 -520h-326l109 514l-258 920h350l114 -545q8 -34 9.5 -63t3.5 -52h2q11 28 24.5 57t28.5 54l350 549h363zM1217 1706q0 -29 -10.5 -54.5t-30.5 -44t-48.5 -29.5t-63.5 -11t-63.5 11t-48.5 30t-31 44.5t-11 53.5q0 30 11.5 55t32.5 42.5t49 27.5t61 10
q34 0 62 -10t48.5 -28t31.5 -43t11 -54zM760 1706q0 -29 -11 -54.5t-31 -44t-48 -29.5t-63 -11q-34 0 -63 11t-49.5 30t-32 44.5t-11.5 53.5q0 30 12 55t33 42.5t49.5 27.5t61.5 10q34 0 62 -10t48.5 -28t31.5 -43t11 -54z" />
    <glyph glyph-name="alphatonos" unicode="&#x3ac;" horiz-adv-x="1333" 
d="M792 510q-3 63 -10 118t-21.5 95.5t-39 63.5t-62.5 23q-58 0 -109 -39t-89 -101.5t-59.5 -140t-21.5 -155.5q0 -33 8 -60.5t23 -47.5t36.5 -31t48.5 -11q72 0 140.5 59.5t124.5 164.5l31 62v0zM814 245q-82 -129 -182.5 -199.5t-228.5 -70.5q-78 0 -141 26t-107.5 75.5
t-69 121t-24.5 162.5q0 95 20.5 182.5t59 164t92 139.5t119.5 108t142.5 70t159.5 25q64 0 112 -15.5t83 -44t59.5 -69.5t41.5 -91h4l49.5 96.5l48.5 98.5h323l-160 -259l-58 -95.5l-51 -83.5l-50 -81q7 -130 32.5 -198.5t82.5 -68.5q20 0 41.5 3.5t41.5 12.5l-28 -120.5
l-28 -121.5q-23 -9 -63 -18t-94 -9q-101 0 -157.5 63t-64.5 197h-5zM1041 1526l-280 -340h-169l168 340h281z" />
    <glyph glyph-name="epsilontonos" unicode="&#x3ad;" horiz-adv-x="970" 
d="M808 28q-75 -22 -161.5 -37.5t-198.5 -15.5q-102 0 -182 20t-135.5 57.5t-85 90t-29.5 118.5t26.5 113.5t68.5 79t94.5 50t103.5 27.5q1 1 1 2t1 2q-32 12 -60.5 31.5t-50 46t-34 59.5t-12.5 73q0 77 34.5 134t99 94.5t156 56.5t205.5 19q44 0 88 -3.5t85 -10t77 -15
t64 -18.5l-22 -109l-22 -109q-29 12 -62 22.5t-67 17.5t-66.5 11t-60.5 4q-34 0 -68 -6.5t-61.5 -20t-44.5 -35t-17 -52.5q0 -29 14 -50t39.5 -34.5t60 -20t75.5 -6.5q12 0 30 0.5t36.5 2l35.5 3t27 2.5l-19.5 -100t-20.5 -100q-19 2 -55.5 4.5t-90.5 2.5t-101 -7t-81.5 -23
t-54 -41.5t-19.5 -62.5q0 -51 45.5 -79t140.5 -28q38 0 79 5t82 14t81.5 21.5t77.5 26.5q-11 -57 -23 -113.5t-23 -113.5zM1022 1527l-280 -340h-169l168 340h281z" />
    <glyph glyph-name="etatonos" unicode="&#x3ae;" horiz-adv-x="1259" 
d="M537 809q78 112 181.5 176t218.5 64q122 0 185 -67t63 -193q0 -21 -3 -48t-7.5 -54.5t-9.5 -53.5t-9 -45l-16 -77l-26 -124.5l-33 -156.5l-36.5 -172.5l-36 -172.5l-33 -157l-26.5 -125l-16 -77h-319l109.5 523.5l110.5 523.5l6.5 34t6.5 38.5t5 37t2 28.5q0 45 -23 70
t-64 25q-54 0 -101.5 -29t-85.5 -74t-64.5 -100t-38.5 -108l-52 -247.5l-52 -247.5h-320l68 316.5l68 316.5l11 60.5t5 42.5q0 26 -15 41t-45 15q-13 0 -28.5 -2.5t-29.5 -7.5q13 57 24.5 114l23.5 114q23 11 70.5 19.5t113.5 8.5q58 0 99 -14.5t66.5 -42.5t37 -67t11.5 -89
v-16h4zM1071 1524l-280 -340h-169l168 340h281z" />
    <glyph glyph-name="iotatonos" unicode="&#x3af;" horiz-adv-x="650" 
d="M535 9q-27 -10 -76.5 -19.5t-110.5 -9.5q-67 0 -117 17.5t-84 49t-51 75t-17 95.5q0 22 2.5 49t6.5 56.5t9.5 60t11.5 58.5q4 17 13.5 62.5l22 104.5l26.5 124.5l26.5 124.5l22 104.5t13.5 62.5h320l-122 -576q-8 -35 -17 -78.5t-9 -75.5q0 -38 24 -53t55 -15
q26 0 52.5 5.5t48.5 14.5l-25 -118.5zM729 1523l-280 -340h-169l168 340h281z" />
    <glyph glyph-name="upsilondieresistonos" unicode="&#x3b0;" horiz-adv-x="1302" 
d="M1202 753q0 -105 -13 -204t-42 -185.5t-76.5 -158t-116.5 -122.5t-162 -79.5t-213 -28.5q-117 0 -202 28t-139.5 76.5t-80.5 114t-26 140.5q0 34 5.5 77t16.5 91l29 132q7 32 12.5 62.5t5.5 44.5q0 56 -60 56q-13 0 -28 -2.5t-29 -6.5l47 228q24 10 69.5 18.5t111.5 8.5
q119 0 174.5 -45t55.5 -121q0 -31 -6 -72.5t-16 -83.5l-51 -235q-5 -26 -8.5 -56t-3.5 -52q0 -72 40.5 -113.5t119.5 -41.5q52 0 91.5 23t68 62.5t48 92.5t31 112t16 121t4.5 120q0 68 -6 135.5t-19 134.5h326q12 -65 19 -133.5t7 -137.5zM1178 1311q0 -54 -38.5 -90.5
t-104.5 -36.5q-32 0 -58.5 10t-45 27.5t-28.5 40.5t-10 49q0 28 11 51t30 39.5t45 25.5t56 9q32 0 58 -9.5t45 -26t29.5 -39.5t10.5 -50zM969 1584l-112.5 -186l-111.5 -186h-147l53 186l53 186h265v0zM565 1311q0 -27 -10 -50t-29 -40.5t-45 -27t-59 -9.5q-32 0 -58 10
t-45 27.5t-29 40.5t-10 49q0 28 11 51t30 39.5t45 25.5t56 9q64 0 103.5 -35t39.5 -90z" />
    <glyph glyph-name="beta" unicode="&#x3b2;" horiz-adv-x="1266" 
d="M1265 1169q0 -80 -25 -143.5t-70.5 -110t-110 -76.5t-142.5 -44v-4q58 -18 106.5 -46.5t83 -69.5t54 -96t19.5 -128q0 -129 -45 -219.5t-121.5 -147t-177 -82.5t-212.5 -26q-88 0 -160 16.5t-119 40.5l-108 -507h-320l318 1504q27 123 73.5 218t117 159.5t166 97.5
t218.5 33q107 0 191.5 -27.5t143 -77t89.5 -117t31 -147.5zM933 1151q0 65 -37 106t-103 41q-51 0 -90 -18.5t-67.5 -54.5t-48.5 -89t-35 -121l-154 -732q42 -29 97.5 -45.5t114.5 -16.5q57 0 102.5 16.5t78 46t50 70.5t17.5 91q0 104 -70 161t-197 64l46 218
q69 2 123.5 19.5t93 51t59 81.5t20.5 111z" />
    <glyph glyph-name="gamma" unicode="&#x3b3;" horiz-adv-x="1172" 
d="M1197 1024q-19 -153 -72 -295t-134.5 -276t-190 -262.5t-240.5 -255.5l-24.5 -108l-24.5 -112.5l-23 -104.5t-20 -84h-320l28 104.5l32 128.5l31.5 133.5l27.5 120.5q1 76 -7.5 162t-23.5 176.5t-36 182.5t-45 179.5t-48.5 166.5t-48.5 144h355q26 -81 48 -175.5
t38.5 -192t27 -194.5t13.5 -184h4q135 178 215 359.5t105 386.5h333v0z" />
    <glyph glyph-name="zeta" unicode="&#x3b6;" horiz-adv-x="958" 
d="M1086 1291l-156 -125.5l-158.5 -130t-146.5 -135.5t-121.5 -141.5t-83 -148.5t-30.5 -156q0 -50 15.5 -86.5t43.5 -63t66 -46t84 -36.5q50 -19 96 -42.5t81 -55.5t55.5 -74t20.5 -97q0 -43 -12.5 -82t-32 -73t-43.5 -61t-46 -46h-321q20 14 41.5 33t39.5 41t29.5 46
t11.5 49q0 30 -14 53t-43 43.5t-73.5 40t-105.5 42.5q-49 18 -91.5 45.5t-74 67t-49.5 93t-18 122.5q0 94 31 181t83.5 167.5t123.5 156t150.5 146t164 136.5l165.5 129v4h-396l49 229h714z" />
    <glyph glyph-name="eta" unicode="&#x3b7;" horiz-adv-x="1259" 
d="M537 809q78 112 181.5 176t218.5 64q122 0 185 -67t63 -193q0 -21 -3 -48t-7.5 -54.5t-9.5 -53.5t-9 -45l-16 -77l-26 -124.5l-33 -156.5l-36.5 -172.5l-36 -172.5l-33 -157l-26.5 -125l-16 -77h-319l109.5 523.5l110.5 523.5l6.5 34t6.5 38.5t5 37t2 28.5q0 45 -23 70
t-64 25q-54 0 -101.5 -29t-85.5 -74t-64.5 -100t-38.5 -108l-52 -247.5l-52 -247.5h-320l68 316.5l68 316.5l11 60.5t5 42.5q0 26 -15 41t-45 15q-13 0 -28.5 -2.5t-29.5 -7.5q13 57 24.5 114l23.5 114q23 11 70.5 19.5t113.5 8.5q58 0 99 -14.5t66.5 -42.5t37 -67t11.5 -89
v-16h4z" />
    <glyph glyph-name="theta" unicode="&#x3b8;" horiz-adv-x="1269" 
d="M834 1541q100 0 178.5 -35t132.5 -103.5t82 -168.5t28 -229q0 -137 -23.5 -267t-67.5 -244t-108 -209.5t-145 -164.5t-177.5 -107t-207.5 -38q-100 0 -178 35t-131.5 103.5t-81.5 168.5t-28 229q0 138 23 267.5t67 244t107.5 210t144.5 164t178 106.5t207 38zM931 877
q5 25 8.5 53.5t5.5 57t3.5 55.5t1.5 48q0 42 -9 79.5t-27 66t-45.5 45t-65.5 16.5q-53 0 -100 -30.5t-86.5 -85.5t-71.5 -132.5t-55 -172.5h441v0zM441 648q-18 -109 -18 -187q0 -129 39 -187t109 -58q97 0 176 107.5t133 324.5h-439z" />
    <glyph glyph-name="iota" unicode="&#x3b9;" horiz-adv-x="650" 
d="M535 9q-27 -10 -76.5 -19.5t-110.5 -9.5q-67 0 -117 17.5t-84 49t-51 75t-17 95.5q0 22 2.5 49t6.5 56.5t9.5 60t11.5 58.5q4 17 13.5 62.5l22 104.5l26.5 124.5l26.5 124.5l22 104.5t13.5 62.5h320l-122 -576q-8 -35 -17 -78.5t-9 -75.5q0 -38 24 -53t55 -15
q26 0 52.5 5.5t48.5 14.5l-25 -118.5z" />
    <glyph glyph-name="kappa" unicode="&#x3ba;" horiz-adv-x="1165" 
d="M1122 773q-11 4 -27 7.5t-39 3.5q-38 0 -77 -20t-90 -66l-101 -87l268 -611h-347l-165 435l-145 -129l-64 -306h-319l217 1024h319l-93 -440l256 261q84 87 169 140t179 53q31 0 62.5 -3.5t49.5 -9.5z" />
    <glyph glyph-name="lambda" unicode="&#x3bb;" horiz-adv-x="1116" 
d="M687 0l-72 682l-366 -682h-350l667 1028l-13 88q-3 26 -11.5 51t-25.5 45t-43.5 32t-65.5 12q-19 0 -41.5 -3.5t-44 -9t-40 -12.5t-31.5 -13l46 262q29 9 59 15t58.5 9t53.5 4.5t43 1.5q93 0 154 -29.5t99 -79.5t57.5 -117t28.5 -141l145 -1143h-307z" />
    <glyph glyph-name="mu" unicode="&#x3bc;" horiz-adv-x="1262" 
d="M705 193q-31 -46 -66 -85.5t-76 -69t-88.5 -46.5t-104.5 -17q-15 0 -34 1.5t-22 2.5l-26 -120l-26 -120l-28 -129h-308l293 1414h318l-119 -555q-3 -14 -6.5 -32t-6.5 -35.5t-5 -32t-2 -22.5q0 -27 3.5 -49.5t13 -38t27.5 -24t47 -8.5q48 0 94 27t85 72t68.5 105
t43.5 126l99 467h319l-126 -587q-7 -32 -11.5 -69.5t-4.5 -57.5q0 -35 21.5 -53.5t54.5 -18.5q15 0 31.5 2.5t33.5 7.5l-52 -240l-38.5 -9.5t-41.5 -7.5t-54.5 -5t-77.5 -2q-58 0 -100.5 13.5t-70 38.5t-41 59t-13.5 75q0 3 0.5 7t0.5 8v8h-4z" />
    <glyph glyph-name="nu" unicode="&#x3bd;" horiz-adv-x="1139" 
d="M1122 933q0 -87 -23 -173.5t-62.5 -171t-94 -165.5t-117 -155.5t-131.5 -142t-138 -125.5h-288l-198 1024h320l116 -763q55 53 108.5 127.5t95.5 160.5t68 177.5t26 176.5q0 35 -3.5 67.5t-9.5 53.5h322q5 -16 7 -43t2 -48z" />
    <glyph glyph-name="xi" unicode="&#x3be;" horiz-adv-x="1000" 
d="M48 349q0 93 38 169t101.5 134.5t145 99.5t168.5 63q-31 12 -61.5 31t-54.5 44.5t-39 57t-15 68.5q0 54 25.5 97.5t65.5 76.5t89 56t97 36v6h-51.5t-71.5 -0.5t-81.5 -0.5h-80.5l25 114l24 115h729q-11 -55 -23 -109l-24 -108q-71 -12 -148.5 -32.5t-142 -52.5t-106 -77
t-41.5 -106q0 -30 12.5 -54.5t33.5 -43t47.5 -31.5t54.5 -21q16 2 37 3.5t44 2.5l46.5 2t44.5 1l-25.5 -128l-25.5 -128q-29 5 -65 7.5t-70 2.5q-79 0 -145 -16.5t-113.5 -47t-74 -73t-26.5 -94.5q0 -39 19 -67t50.5 -49.5t72.5 -39.5l86 -36q50 -20 97 -43.5t83.5 -54.5
t58.5 -72.5t22 -97.5q0 -38 -12 -76.5t-31 -73.5t-43 -64.5t-47 -47.5h-322q19 15 40 33.5t38 40t28.5 46t11.5 51.5q0 45 -41.5 75.5t-123.5 62.5l-53 24l-57 27q-39 19 -78.5 45t-71 62t-51 83t-19.5 108z" />
    <glyph glyph-name="omicron" unicode="&#x3bf;" horiz-adv-x="1178" 
d="M1116 618q0 -71 -14 -146t-44 -146.5t-77.5 -135.5t-115 -111.5t-156 -75.5t-201.5 -28q-114 0 -198.5 33t-139.5 91t-82 137.5t-27 171.5q0 74 15 150.5t46.5 147.5t80.5 133.5t117 109t155.5 73.5t196.5 27q107 0 189.5 -30.5t139 -87t86 -136t29.5 -177.5zM797 614
q0 42 -10 77.5t-29.5 61t-47.5 40t-65 14.5q-63 0 -112.5 -36t-83.5 -93t-52 -128t-18 -142q0 -91 42.5 -141t110.5 -50q65 0 114.5 35t83 91.5t50.5 127.5t17 143z" />
    <glyph glyph-name="rho" unicode="&#x3c1;" horiz-adv-x="1220" 
d="M1158 612q0 -140 -38 -257t-107.5 -201.5t-168 -131.5t-219.5 -47q-91 0 -166 27.5t-120 74.5h-4l-113 -551h-319l207 982q27 129 73.5 230t118.5 170t172 105t234 36q102 0 185 -32t142 -90t91 -138.5t32 -176.5zM836 606q0 43 -11 80t-32 64t-51.5 42.5t-69.5 15.5
q-51 0 -89 -18.5t-66 -51.5t-46.5 -80t-30.5 -104l-53 -250q27 -34 72.5 -61t107.5 -27q60 0 110 30t85 82.5t54.5 124t19.5 153.5z" />
    <glyph glyph-name="sigma1" unicode="&#x3c2;" horiz-adv-x="1014" 
d="M398 444q0 -47 20 -81t53.5 -60t77 -45t89.5 -36q50 -19 95.5 -42.5t80.5 -55.5t56 -74t21 -97q0 -43 -13 -82t-32.5 -73t-43 -61t-45.5 -46h-322q20 14 41.5 33t39.5 41t29.5 46t11.5 49q0 30 -13 53.5t-41 44.5t-72 41.5t-105 43.5q-53 20 -101 49.5t-84.5 71.5
t-58 97.5t-21.5 127.5q0 86 19.5 168.5t57.5 155.5t93.5 135t127.5 106.5t160 69.5t190 25q95 0 162.5 -19.5t100.5 -39.5l-56 -244q-33 26 -83.5 44t-115.5 18q-73 0 -132 -34t-100.5 -87t-64 -117.5t-22.5 -125.5z" />
    <glyph glyph-name="upsilon" unicode="&#x3c5;" horiz-adv-x="1302" 
d="M1202 753q0 -105 -13 -204t-42 -185.5t-76.5 -158t-116.5 -122.5t-162 -79.5t-213 -28.5q-117 0 -202 28t-139.5 76.5t-80.5 114t-26 140.5q0 34 5.5 77t16.5 91l29 132q7 32 12.5 62.5t5.5 44.5q0 56 -60 56q-13 0 -28 -2.5t-29 -6.5l47 228q24 10 69.5 18.5t111.5 8.5
q119 0 174.5 -45t55.5 -121q0 -31 -6 -72.5t-16 -83.5l-51 -235q-5 -26 -8.5 -56t-3.5 -52q0 -72 40.5 -113.5t119.5 -41.5q52 0 91.5 23t68 62.5t48 92.5t31 112t16 121t4.5 120q0 68 -6 135.5t-19 134.5h326q12 -65 19 -133.5t7 -137.5z" />
    <glyph glyph-name="chi" unicode="&#x3c7;" horiz-adv-x="1106" 
d="M669 316l78 -345q12 -53 23.5 -91t28 -63t39 -37t55.5 -12q20 0 40.5 6t37.5 15l-50 -239q-20 -9 -57 -16t-92 -7q-58 0 -102 15.5t-77 52.5t-57 98t-43 151l-49 228l-353 -541h-341l614 816l-62 283q-20 92 -47.5 136t-78.5 44q-26 0 -47 -8.5t-36 -16.5l51 244
q18 8 53.5 14t85.5 6q58 0 100 -14.5t71.5 -43.5t48 -71t29.5 -98l48 -233l270 435h346z" />
    <glyph glyph-name="psi" unicode="&#x3c8;" horiz-adv-x="1650" 
d="M1535 557q-34 -159 -83 -269.5t-121 -180t-170.5 -101t-231.5 -31.5h-83l-95 -449h-291l94 449h-40q-92 0 -169 25t-133 75t-87.5 125.5t-31.5 176.5q0 35 6.5 85t16.5 94l100 468h294l-99 -468q-8 -39 -13 -78t-5 -67q0 -55 14 -92t38.5 -60t57.5 -33t72 -10h30
l239 1115h291l-239 -1115h37q64 0 112.5 22t85 65t62.5 106.5t44 146.5l100 468h296z" />
    <glyph glyph-name="omega" unicode="&#x3c9;" horiz-adv-x="1715" 
d="M1638 695q0 -148 -28.5 -279t-91 -229t-162.5 -155t-243 -57q-63 0 -115 15t-92.5 41.5t-69 63t-44.5 79.5h-4q-26 -41 -58.5 -77.5t-75 -63.5t-97 -42.5t-126.5 -15.5q-87 0 -155 27.5t-115 79t-72 124.5t-25 163q0 99 23.5 190t60.5 173.5t84 155.5t93 136h331
q-52 -65 -103.5 -141.5t-92.5 -159t-66 -167t-25 -166.5q0 -80 32.5 -123.5t90.5 -43.5q33 0 63 12t56.5 41.5t48.5 77.5t37 120l55 266h296l-56 -266l-4.5 -25.5t-4.5 -29.5t-3.5 -29t-1.5 -25q0 -37 10 -63.5t27.5 -44t40.5 -26t49 -8.5q61 0 104 36.5t70.5 98t40 142
t12.5 168.5q0 48 -6 97.5t-15 96.5t-20.5 88.5t-22.5 73.5h329q8 -30 15.5 -68.5t13 -81t9 -88.5t3.5 -91z" />
    <glyph glyph-name="iotadieresis" unicode="&#x3ca;" horiz-adv-x="650" 
d="M535 9q-27 -10 -76.5 -19.5t-110.5 -9.5q-67 0 -117 17.5t-84 49t-51 75t-17 95.5q0 22 2.5 49t6.5 56.5t9.5 60t11.5 58.5q4 17 13.5 62.5l22 104.5l26.5 124.5l26.5 124.5l22 104.5t13.5 62.5h320l-122 -576q-8 -35 -17 -78.5t-9 -75.5q0 -38 24 -53t55 -15
q26 0 52.5 5.5t48.5 14.5l-25 -118.5zM798 1327q0 -29 -10.5 -54.5t-30.5 -44t-48.5 -29.5t-63.5 -11t-63.5 11t-48.5 30t-31 44.5t-11 53.5q0 30 11.5 55t32.5 42.5t49 27.5t61 10q34 0 62 -10t48.5 -28t31.5 -43t11 -54zM341 1327q0 -29 -11 -54.5t-31 -44t-48 -29.5
t-63 -11q-34 0 -63 11t-49.5 30t-32 44.5t-11.5 53.5q0 30 12 55t33 42.5t49.5 27.5t61.5 10q34 0 62 -10t48.5 -28t31.5 -43t11 -54z" />
    <glyph glyph-name="upsilondieresis" unicode="&#x3cb;" horiz-adv-x="1302" 
d="M1202 753q0 -105 -13 -204t-42 -185.5t-76.5 -158t-116.5 -122.5t-162 -79.5t-213 -28.5q-117 0 -202 28t-139.5 76.5t-80.5 114t-26 140.5q0 34 5.5 77t16.5 91l29 132q7 32 12.5 62.5t5.5 44.5q0 56 -60 56q-13 0 -28 -2.5t-29 -6.5l47 228q24 10 69.5 18.5t111.5 8.5
q119 0 174.5 -45t55.5 -121q0 -31 -6 -72.5t-16 -83.5l-51 -235q-5 -26 -8.5 -56t-3.5 -52q0 -72 40.5 -113.5t119.5 -41.5q52 0 91.5 23t68 62.5t48 92.5t31 112t16 121t4.5 120q0 68 -6 135.5t-19 134.5h326q12 -65 19 -133.5t7 -137.5zM1134 1324q0 -29 -10.5 -54.5
t-30.5 -44t-48.5 -29.5t-63.5 -11t-63.5 11t-48.5 30t-31 44.5t-11 53.5q0 30 11.5 55t32.5 42.5t49 27.5t61 10q34 0 62 -10t48.5 -28t31.5 -43t11 -54zM677 1324q0 -29 -11 -54.5t-31 -44t-48 -29.5t-63 -11q-34 0 -63 11t-49.5 30t-32 44.5t-11.5 53.5q0 30 12 55
t33 42.5t49.5 27.5t61.5 10q34 0 62 -10t48.5 -28t31.5 -43t11 -54z" />
    <glyph glyph-name="omicrontonos" unicode="&#x3cc;" horiz-adv-x="1178" 
d="M1116 618q0 -71 -14 -146t-44 -146.5t-77.5 -135.5t-115 -111.5t-156 -75.5t-201.5 -28q-114 0 -198.5 33t-139.5 91t-82 137.5t-27 171.5q0 74 15 150.5t46.5 147.5t80.5 133.5t117 109t155.5 73.5t196.5 27q107 0 189.5 -30.5t139 -87t86 -136t29.5 -177.5zM797 614
q0 42 -10 77.5t-29.5 61t-47.5 40t-65 14.5q-63 0 -112.5 -36t-83.5 -93t-52 -128t-18 -142q0 -91 42.5 -141t110.5 -50q65 0 114.5 35t83 91.5t50.5 127.5t17 143zM1026 1524l-280 -340h-169l168 340h281z" />
    <glyph glyph-name="upsilontonos" unicode="&#x3cd;" horiz-adv-x="1302" 
d="M1202 753q0 -105 -13 -204t-42 -185.5t-76.5 -158t-116.5 -122.5t-162 -79.5t-213 -28.5q-117 0 -202 28t-139.5 76.5t-80.5 114t-26 140.5q0 34 5.5 77t16.5 91l29 132q7 32 12.5 62.5t5.5 44.5q0 56 -60 56q-13 0 -28 -2.5t-29 -6.5l47 228q24 10 69.5 18.5t111.5 8.5
q119 0 174.5 -45t55.5 -121q0 -31 -6 -72.5t-16 -83.5l-51 -235q-5 -26 -8.5 -56t-3.5 -52q0 -72 40.5 -113.5t119.5 -41.5q52 0 91.5 23t68 62.5t48 92.5t31 112t16 121t4.5 120q0 68 -6 135.5t-19 134.5h326q12 -65 19 -133.5t7 -137.5zM1034 1525l-280 -340h-169l168 340
h281z" />
    <glyph glyph-name="omegatonos" unicode="&#x3ce;" horiz-adv-x="1715" 
d="M1638 695q0 -148 -28.5 -279t-91 -229t-162.5 -155t-243 -57q-63 0 -115 15t-92.5 41.5t-69 63t-44.5 79.5h-4q-26 -41 -58.5 -77.5t-75 -63.5t-97 -42.5t-126.5 -15.5q-87 0 -155 27.5t-115 79t-72 124.5t-25 163q0 99 23.5 190t60.5 173.5t84 155.5t93 136h331
q-52 -65 -103.5 -141.5t-92.5 -159t-66 -167t-25 -166.5q0 -80 32.5 -123.5t90.5 -43.5q33 0 63 12t56.5 41.5t48.5 77.5t37 120l55 266h296l-56 -266l-4.5 -25.5t-4.5 -29.5t-3.5 -29t-1.5 -25q0 -37 10 -63.5t27.5 -44t40.5 -26t49 -8.5q61 0 104 36.5t70.5 98t40 142
t12.5 168.5q0 48 -6 97.5t-15 96.5t-20.5 88.5t-22.5 73.5h329q8 -30 15.5 -68.5t13 -81t9 -88.5t3.5 -91zM1272 1526l-280 -340h-169l168 340h281z" />
    </font>
</defs>
</svg>
